  0
SECTION
  2
HEADER
  9
$ACADVER
  1
AC1015
  9
$ACADMAINTVER
 70
     6
  9
$DWGCODEPAGE
  3
ANSI_1252
  9
$INSBASE
 10
0.0
 20
0.0
 30
0.0
  9
$EXTMIN
 10
0.0
 20
0.0
 30
0.0
  9
$EXTMAX
 10
1189.0
 20
841.0
 30
0.0
  9
$LIMMIN
 10
0.0
 20
0.0
  9
$LIMMAX
 10
1189.0
 20
841.0
  9
$ORTHOMODE
 70
     0
  9
$REGENMODE
 70
     1
  9
$FILLMODE
 70
     1
  9
$QTEXTMODE
 70
     0
  9
$MIRRTEXT
 70
     1
  9
$LTSCALE
 40
1.0
  9
$ATTMODE
 70
     1
  9
$TEXTSIZE
 40
12.7
  9
$TRACEWID
 40
1.0
  9
$TEXTSTYLE
  7
Standard
  9
$CLAYER
  8
0
  9
$CELTYPE
  6
ByLayer
  9
$CECOLOR
 62
   256
  9
$CELTSCALE
 40
1.0
  9
$DISPSILH
 70
     0
  9
$DIMSCALE
 40
1.0
  9
$DIMASZ
 40
4.72
  9
$DIMEXO
 40
1.0
  9
$DIMDLI
 40
3.75
  9
$DIMRND
 40
0.0
  9
$DIMDLE
 40
0.0
  9
$DIMEXE
 40
1.0
  9
$DIMTP
 40
0.0
  9
$DIMTM
 40
0.0
  9
$DIMTXT
 40
3.0
  9
$DIMCEN
 40
2.5
  9
$DIMTSZ
 40
0.0
  9
$DIMTOL
 70
     0
  9
$DIMLIM
 70
     0
  9
$DIMTIH
 70
     1
  9
$DIMTOH
 70
     1
  9
$DIMSE1
 70
     0
  9
$DIMSE2
 70
     0
  9
$DIMTAD
 70
     1
  9
$DIMZIN
 70
     1
  9
$DIMBLK
  1

  9
$DIMASO
 70
     1
  9
$DIMSHO
 70
     1
  9
$DIMPOST
  1

  9
$DIMAPOST
  1

  9
$DIMALT
 70
     0
  9
$DIMALTD
 70
     3
  9
$DIMALTF
 40
0.0393700787
  9
$DIMLFAC
 40
1.0
  9
$DIMTOFL
 70
     1
  9
$DIMTVP
 40
0.0
  9
$DIMTIX
 70
     0
  9
$DIMSOXD
 70
     0
  9
$DIMSAH
 70
     0
  9
$DIMBLK1
  1

  9
$DIMBLK2
  1

  9
$DIMSTYLE
  2
ISO-25
  9
$DIMCLRD
 70
     0
  9
$DIMCLRE
 70
     0
  9
$DIMCLRT
 70
     0
  9
$DIMTFAC
 40
1.0
  9
$DIMGAP
 40
1.524
  9
$DIMJUST
 70
     0
  9
$DIMSD1
 70
     0
  9
$DIMSD2
 70
     0
  9
$DIMTOLJ
 70
     0
  9
$DIMTZIN
 70
     1
  9
$DIMALTZ
 70
     0
  9
$DIMALTTZ
 70
     0
  9
$DIMUPT
 70
     0
  9
$DIMDEC
 70
     2
  9
$DIMTDEC
 70
     2
  9
$DIMALTU
 70
     2
  9
$DIMALTTD
 70
     3
  9
$DIMTXSTY
  7
Standard
  9
$DIMAUNIT
 70
     0
  9
$DIMADEC
 70
     0
  9
$DIMALTRND
 40
0.0
  9
$DIMAZIN
 70
     0
  9
$DIMDSEP
 70
    44
  9
$DIMATFIT
 70
     3
  9
$DIMFRAC
 70
     0
  9
$DIMLDRBLK
  1

  9
$DIMLUNIT
 70
     2
  9
$DIMLWD
 70
    -2
  9
$DIMLWE
 70
    -2
  9
$DIMTMOVE
 70
     0
  9
$LUNITS
 70
     2
  9
$LUPREC
 70
     2
  9
$SKETCHINC
 40
1.0
  9
$FILLETRAD
 40
10.0
  9
$AUNITS
 70
     0
  9
$AUPREC
 70
     0
  9
$MENU
  1
.
  9
$ELEVATION
 40
0.0
  9
$PELEVATION
 40
0.0
  9
$THICKNESS
 40
0.0
  9
$LIMCHECK
 70
     0
  9
$CHAMFERA
 40
10.0
  9
$CHAMFERB
 40
10.0
  9
$CHAMFERC
 40
20.0
  9
$CHAMFERD
 40
0.0
  9
$SKPOLY
 70
     0
  9
$TDCREATE
 40
2456841.528009607
  9
$TDUCREATE
 40
2456841.48634294
  9
$TDUPDATE
 40
2456841.528010625
  9
$TDUUPDATE
 40
2456841.486343958
  9
$TDINDWG
 40
0.0000000116
  9
$TDUSRTIMER
 40
0.0000000116
  9
$USRTIMER
 70
     1
  9
$ANGBASE
 50
0.0
  9
$ANGDIR
 70
     0
  9
$PDMODE
 70
     0
  9
$PDSIZE
 40
-1.0
  9
$PLINEWID
 40
0.0
  9
$SPLFRAME
 70
     0
  9
$SPLINETYPE
 70
     6
  9
$SPLINESEGS
 70
     8
  9
$HANDSEED
  5
2D7
  9
$SURFTAB1
 70
     6
  9
$SURFTAB2
 70
     6
  9
$SURFTYPE
 70
     6
  9
$SURFU
 70
     6
  9
$SURFV
 70
     6
  9
$UCSBASE
  2

  9
$UCSNAME
  2

  9
$UCSORG
 10
0.0
 20
0.0
 30
0.0
  9
$UCSXDIR
 10
1.0
 20
0.0
 30
0.0
  9
$UCSYDIR
 10
0.0
 20
1.0
 30
0.0
  9
$UCSORTHOREF
  2

  9
$UCSORTHOVIEW
 70
     0
  9
$UCSORGTOP
 10
0.0
 20
0.0
 30
0.0
  9
$UCSORGBOTTOM
 10
0.0
 20
0.0
 30
0.0
  9
$UCSORGLEFT
 10
0.0
 20
0.0
 30
0.0
  9
$UCSORGRIGHT
 10
0.0
 20
0.0
 30
0.0
  9
$UCSORGFRONT
 10
0.0
 20
0.0
 30
0.0
  9
$UCSORGBACK
 10
0.0
 20
0.0
 30
0.0
  9
$PUCSBASE
  2

  9
$PUCSNAME
  2

  9
$PUCSORG
 10
0.0
 20
0.0
 30
0.0
  9
$PUCSXDIR
 10
1.0
 20
0.0
 30
0.0
  9
$PUCSYDIR
 10
0.0
 20
1.0
 30
0.0
  9
$PUCSORTHOREF
  2

  9
$PUCSORTHOVIEW
 70
     0
  9
$PUCSORGTOP
 10
0.0
 20
0.0
 30
0.0
  9
$PUCSORGBOTTOM
 10
0.0
 20
0.0
 30
0.0
  9
$PUCSORGLEFT
 10
0.0
 20
0.0
 30
0.0
  9
$PUCSORGRIGHT
 10
0.0
 20
0.0
 30
0.0
  9
$PUCSORGFRONT
 10
0.0
 20
0.0
 30
0.0
  9
$PUCSORGBACK
 10
0.0
 20
0.0
 30
0.0
  9
$USERI1
 70
     0
  9
$USERI2
 70
     0
  9
$USERI3
 70
     0
  9
$USERI4
 70
     0
  9
$USERI5
 70
     0
  9
$USERR1
 40
0.0
  9
$USERR2
 40
0.0
  9
$USERR3
 40
0.0
  9
$USERR4
 40
0.0
  9
$USERR5
 40
0.0
  9
$WORLDVIEW
 70
     1
  9
$SHADEDGE
 70
     3
  9
$SHADEDIF
 70
    70
  9
$TILEMODE
 70
     1
  9
$MAXACTVP
 70
    64
  9
$PINSBASE
 10
0.0
 20
0.0
 30
0.0
  9
$PLIMCHECK
 70
     0
  9
$PEXTMIN
 10
1.0000000000E+20
 20
1.0000000000E+20
 30
1.0000000000E+20
  9
$PEXTMAX
 10
-1.0000000000E+20
 20
-1.0000000000E+20
 30
-1.0000000000E+20
  9
$PLIMMIN
 10
0.0
 20
0.0
  9
$PLIMMAX
 10
420.0
 20
297.0
  9
$UNITMODE
 70
     0
  9
$VISRETAIN
 70
     1
  9
$PLINEGEN
 70
     0
  9
$PSLTSCALE
 70
     1
  9
$TREEDEPTH
 70
  3020
  9
$CMLSTYLE
  2
Standard
  9
$CMLJUST
 70
     0
  9
$CMLSCALE
 40
20.0
  9
$PROXYGRAPHICS
 70
     1
  9
$MEASUREMENT
 70
     1
  9
$CELWEIGHT
370
    -1
  9
$ENDCAPS
280
     0
  9
$JOINSTYLE
280
     0
  9
$LWDISPLAY
290
     1
  9
$INSUNITS
 70
     4
  9
$HYPERLINKBASE
  1

  9
$STYLESHEET
  1

  9
$XEDIT
290
     1
  9
$CEPSNTYPE
380
     0
  9
$PSTYLEMODE
290
     1
  9
$FINGERPRINTGUID
  2
{26EED106-6678-4C95-91BC-DF241BD745D1}
  9
$VERSIONGUID
  2
{FAEB1C32-E019-11D5-929B-00C0DF256EC4}
  9
$EXTNAMES
290
     1
  9
$PSVPSCALE
 40
0.0
  9
$OLESTARTUP
290
     0
  0
ENDSEC
  0
SECTION
  2
CLASSES
  0
CLASS
  1
ACDBDICTIONARYWDFLT
  2
AcDbDictionaryWithDefault
  3
ObjectDBX Classes
 90
        0
280
     0
281
     0
  0
CLASS
  1
VISUALSTYLE
  2
AcDbVisualStyle
  3
ObjectDBX Classes
 90
     4095
280
     0
281
     0
  0
CLASS
  1
MATERIAL
  2
AcDbMaterial
  3
ObjectDBX Classes
 90
     1153
280
     0
281
     0
  0
CLASS
  1
ACDBPLACEHOLDER
  2
AcDbPlaceHolder
  3
ObjectDBX Classes
 90
        0
280
     0
281
     0
  0
CLASS
  1
LAYOUT
  2
AcDbLayout
  3
ObjectDBX Classes
 90
        0
280
     0
281
     0
  0
ENDSEC
  0
SECTION
  2
TABLES
  0
TABLE
  2
VPORT
  5
8
330
0
100
AcDbSymbolTable
 70
     1
  0
VPORT
  5
29
330
8
100
AcDbSymbolTableRecord
100
AcDbViewportTableRecord
  2
*Active
 70
     0
 10
0.0
 20
0.0
 11
1.0
 21
1.0
 12
594.5
 22
420.5
 13
0.0
 23
0.0
 14
10.0
 24
10.0
 15
10.0
 25
10.0
 16
0.0
 26
0.0
 36
1.0
 17
0.0
 27
0.0
 37
0.0
 40
841.0
 41
1.4137931034
 42
50.0
 43
0.0
 44
0.0
 50
0.0
 51
0.0
 71
     0
 72
  2000
 73
     1
 74
     3
 75
     0
 76
     0
 77
     0
 78
     0
281
     0
 65
     1
110
0.0
120
0.0
130
0.0
111
1.0
121
0.0
131
0.0
112
0.0
122
1.0
132
0.0
 79
     0
146
0.0
  0
ENDTAB
  0
TABLE
  2
LTYPE
  5
5
330
0
100
AcDbSymbolTable
 70
     6
  0
LTYPE
  5
14
330
5
100
AcDbSymbolTableRecord
100
AcDbLinetypeTableRecord
  2
ByBlock
 70
     0
  3

 72
    65
 73
     0
 40
0.0
  0
LTYPE
  5
15
330
5
100
AcDbSymbolTableRecord
100
AcDbLinetypeTableRecord
  2
ByLayer
 70
     0
  3

 72
    65
 73
     0
 40
0.0
  0
LTYPE
  5
16
330
5
100
AcDbSymbolTableRecord
100
AcDbLinetypeTableRecord
  2
Continuous
 70
     0
  3
Solid line
 72
    65
 73
     0
 40
0.0
  0
LTYPE
  5
3F
330
5
100
AcDbSymbolTableRecord
100
AcDbLinetypeTableRecord
  2
HIDDEN
 70
     0
  3
Hidden __ __ __ __ __ __ __ __ __ __ __ __ __ __
 72
    65
 73
     2
 40
1.905
 49
1.27
 74
     0
 49
-0.635
 74
     0
  0
LTYPE
  5
40
330
5
100
AcDbSymbolTableRecord
100
AcDbLinetypeTableRecord
  2
PHANTOM
 70
     0
  3
Phantom ______  __  __  ______  __  __  ______
 72
    65
 73
     6
 40
12.7
 49
6.35
 74
     0
 49
-1.27
 74
     0
 49
1.27
 74
     0
 49
-1.27
 74
     0
 49
1.27
 74
     0
 49
-1.27
 74
     0
  0
LTYPE
  5
41
330
5
100
AcDbSymbolTableRecord
100
AcDbLinetypeTableRecord
  2
CENTER
 70
     0
  3
Center ____ _ ____ _ ____ _ ____ _ ____ _ ____
 72
    65
 73
     4
 40
10.16
 49
6.35
 74
     0
 49
-1.27
 74
     0
 49
1.27
 74
     0
 49
-1.27
 74
     0
  0
LTYPE
  5
42
330
5
100
AcDbSymbolTableRecord
100
AcDbLinetypeTableRecord
  2
CENTERX2
 70
     0
  3
Center (2x) ________  __  ________  __  _____
 72
    65
 73
     4
 40
20.32
 49
12.7
 74
     0
 49
-2.54
 74
     0
 49
2.54
 74
     0
 49
-2.54
 74
     0
  0
LTYPE
  5
43
330
5
100
AcDbSymbolTableRecord
100
AcDbLinetypeTableRecord
  2
DOT2
 70
     0
  3
Dot (.5x) ........................................
 72
    65
 73
     2
 40
0.635
 49
0.0
 74
     0
 49
-0.635
 74
     0
  0
ENDTAB
  0
TABLE
  2
LAYER
  5
2
330
0
100
AcDbSymbolTable
 70
    12
  0
LAYER
  5
10
330
2
100
AcDbSymbolTableRecord
100
AcDbLayerTableRecord
  2
0
 70
     0
 62
     7
  6
Continuous
370
    -3
390
F
  0
LAYER
  5
44
330
2
100
AcDbSymbolTableRecord
100
AcDbLayerTableRecord
  2
SLD-0
 70
     0
 62
     7
  6
Continuous
370
    -3
390
F
  0
LAYER
  5
45
330
2
100
AcDbSymbolTableRecord
100
AcDbLayerTableRecord
  2
BORDER
 70
     0
 62
     9
  6
Continuous
370
    -3
390
F
  0
LAYER
  5
46
330
2
100
AcDbSymbolTableRecord
100
AcDbLayerTableRecord
  2
TEXT
 70
     0
 62
     5
  6
Continuous
370
    -3
390
F
  0
LAYER
  5
47
330
2
100
AcDbSymbolTableRecord
100
AcDbLayerTableRecord
  2
CEN
 70
     0
 62
     1
  6
CENTER
370
    -3
390
F
  0
LAYER
  5
48
330
2
100
AcDbSymbolTableRecord
100
AcDbLayerTableRecord
  2
HAT
 70
     0
 62
     2
  6
Continuous
370
    -3
390
F
  0
LAYER
  5
49
330
2
100
AcDbSymbolTableRecord
100
AcDbLayerTableRecord
  2
CON
 70
     0
 62
     6
  6
Continuous
370
    -3
390
F
  0
LAYER
  5
4A
330
2
100
AcDbSymbolTableRecord
100
AcDbLayerTableRecord
  2
HID
 70
     0
 62
     4
  6
HIDDEN
370
    -3
390
F
  0
LAYER
  5
4B
330
2
100
AcDbSymbolTableRecord
100
AcDbLayerTableRecord
  2
SLD-DEFPOINTS
 70
     0
 62
     7
  6
Continuous
370
    -3
390
F
  0
LAYER
  5
4C
330
2
100
AcDbSymbolTableRecord
100
AcDbLayerTableRecord
  2
BORDER_THICK
 70
     0
 62
     8
  6
Continuous
370
    -3
390
F
  0
LAYER
  5
4D
330
2
100
AcDbSymbolTableRecord
100
AcDbLayerTableRecord
  2
LAYER_1
 70
     0
 62
   160
  6
Continuous
370
    -3
390
F
  0
LAYER
  5
4E
330
2
100
AcDbSymbolTableRecord
100
AcDbLayerTableRecord
  2
FORMAT
 70
     0
 62
     7
  6
Continuous
370
    -3
390
F
  0
ENDTAB
  0
TABLE
  2
STYLE
  5
3
330
0
100
AcDbSymbolTable
 70
     2
  0
STYLE
  5
11
330
3
100
AcDbSymbolTableRecord
100
AcDbTextStyleTableRecord
  2
Standard
 70
     0
 40
0.0
 41
1.0
 50
0.0
 71
     0
 42
12.7
  3
txt
  4

  0
STYLE
  5
52
330
3
100
AcDbSymbolTableRecord
100
AcDbTextStyleTableRecord
  2
SLDTEXTSTYLE0
 70
     0
 40
0.0
 41
0.7
 50
0.0
 71
     0
 42
0.2
  3
TXT
  4

  0
ENDTAB
  0
TABLE
  2
VIEW
  5
6
330
0
100
AcDbSymbolTable
 70
     0
  0
ENDTAB
  0
TABLE
  2
UCS
  5
7
330
0
100
AcDbSymbolTable
 70
     0
  0
ENDTAB
  0
TABLE
  2
APPID
  5
9
330
0
100
AcDbSymbolTable
 70
     1
  0
APPID
  5
12
330
9
100
AcDbSymbolTableRecord
100
AcDbRegAppTableRecord
  2
ACAD
 70
     0
  0
ENDTAB
  0
TABLE
  2
DIMSTYLE
  5
A
330
0
100
AcDbSymbolTable
 70
     3
100
AcDbDimStyleTable
  0
DIMSTYLE
105
27
330
A
100
AcDbSymbolTableRecord
100
AcDbDimStyleTableRecord
  2
ISO-25
 70
     0
 41
2.5
 42
0.625
 43
3.75
 44
1.25
 73
     0
 74
     0
 77
     1
 78
     8
140
2.5
141
2.5
143
0.0393700787
147
0.625
171
     3
172
     1
178
     0
271
     2
272
     2
274
     3
278
    44
283
     0
284
     8
340
11
  0
DIMSTYLE
105
151
330
A
100
AcDbSymbolTableRecord
100
AcDbDimStyleTableRecord
  2
SLDDIMSTYLE0
 70
     0
 41
4.72
 44
0.0
 45
0.000000001
140
0.0
146
4.72
147
0.0
173
     1
178
     0
271
     0
272
     0
276
     2
340
11
  0
DIMSTYLE
105
278
102
{ACAD_REACTORS
330
277
102
}
330
A
100
AcDbSymbolTableRecord
100
AcDbDimStyleTableRecord
  2
SLDDIMSTYLE1
 70
     0
 41
4.72
 44
0.0
 45
0.000000001
 78
     4
 79
     1
140
3.0
141
0.0
147
0.75
172
     1
173
     1
178
     0
271
     2
272
     2
276
     2
284
    12
340
52
341
279
343
279
344
27C
  0
ENDTAB
  0
TABLE
  2
BLOCK_RECORD
  5
1
330
0
100
AcDbSymbolTable
 70
    21
  0
BLOCK_RECORD
  5
1F
330
1
100
AcDbSymbolTableRecord
100
AcDbBlockTableRecord
  2
*Model_Space
340
22
  0
BLOCK_RECORD
  5
1B
330
1
100
AcDbSymbolTableRecord
100
AcDbBlockTableRecord
  2
*Paper_Space
340
1E
  0
BLOCK_RECORD
  5
23
330
1
100
AcDbSymbolTableRecord
100
AcDbBlockTableRecord
  2
*Paper_Space0
340
26
  0
BLOCK_RECORD
  5
4F
330
1
100
AcDbSymbolTableRecord
100
AcDbBlockTableRecord
  2
SW_NOTE_0
340
0
102
{BLKREFS
331
55
102
}
  0
BLOCK_RECORD
  5
146
330
1
100
AcDbSymbolTableRecord
100
AcDbBlockTableRecord
  2
SW_NOTE_1
340
0
102
{BLKREFS
331
150
102
}
  0
BLOCK_RECORD
  5
153
330
1
100
AcDbSymbolTableRecord
100
AcDbBlockTableRecord
  2
SW_NOTE_2
340
0
102
{BLKREFS
331
15D
102
}
  0
BLOCK_RECORD
  5
15F
330
1
100
AcDbSymbolTableRecord
100
AcDbBlockTableRecord
  2
SW_NOTE_3
340
0
102
{BLKREFS
331
169
102
}
  0
BLOCK_RECORD
  5
16B
330
1
100
AcDbSymbolTableRecord
100
AcDbBlockTableRecord
  2
SW_NOTE_4
340
0
102
{BLKREFS
331
175
102
}
  0
BLOCK_RECORD
  5
177
330
1
100
AcDbSymbolTableRecord
100
AcDbBlockTableRecord
  2
SW_NOTE_5
340
0
102
{BLKREFS
331
181
102
}
  0
BLOCK_RECORD
  5
183
330
1
100
AcDbSymbolTableRecord
100
AcDbBlockTableRecord
  2
SW_NOTE_6
340
0
102
{BLKREFS
331
18D
102
}
  0
BLOCK_RECORD
  5
18F
330
1
100
AcDbSymbolTableRecord
100
AcDbBlockTableRecord
  2
SW_NOTE_7
340
0
102
{BLKREFS
331
199
102
}
  0
BLOCK_RECORD
  5
19B
330
1
100
AcDbSymbolTableRecord
100
AcDbBlockTableRecord
  2
SW_NOTE_8
340
0
102
{BLKREFS
331
1A5
102
}
  0
BLOCK_RECORD
  5
1A7
330
1
100
AcDbSymbolTableRecord
100
AcDbBlockTableRecord
  2
SW_NOTE_9
340
0
102
{BLKREFS
331
1B1
102
}
  0
BLOCK_RECORD
  5
1B3
330
1
100
AcDbSymbolTableRecord
100
AcDbBlockTableRecord
  2
SW_NOTE_10
340
0
102
{BLKREFS
331
1BD
102
}
  0
BLOCK_RECORD
  5
1BF
330
1
100
AcDbSymbolTableRecord
100
AcDbBlockTableRecord
  2
SW_NOTE_11
340
0
102
{BLKREFS
331
1C9
102
}
  0
BLOCK_RECORD
  5
1CB
330
1
100
AcDbSymbolTableRecord
100
AcDbBlockTableRecord
  2
SW_NOTE_12
340
0
102
{BLKREFS
331
1D5
102
}
  0
BLOCK_RECORD
  5
1D7
330
1
100
AcDbSymbolTableRecord
100
AcDbBlockTableRecord
  2
SW_NOTE_13
340
0
102
{BLKREFS
331
1E1
102
}
  0
BLOCK_RECORD
  5
1E3
330
1
100
AcDbSymbolTableRecord
100
AcDbBlockTableRecord
  2
SW_NOTE_14
340
0
102
{BLKREFS
331
1ED
102
}
  0
BLOCK_RECORD
  5
1EF
330
1
100
AcDbSymbolTableRecord
100
AcDbBlockTableRecord
  2
SW_NOTE_15
340
0
102
{BLKREFS
331
1F9
102
}
  0
BLOCK_RECORD
  5
1FB
330
1
100
AcDbSymbolTableRecord
100
AcDbBlockTableRecord
  2
SW_NOTE_16
340
0
102
{BLKREFS
331
205
102
}
  0
BLOCK_RECORD
  5
279
330
1
100
AcDbSymbolTableRecord
100
AcDbBlockTableRecord
  2
_NONE
340
0
  0
BLOCK_RECORD
  5
27C
330
1
100
AcDbSymbolTableRecord
100
AcDbBlockTableRecord
  2
_CLOSED
340
0
102
{BLKREFS
331
286
102
}
  0
BLOCK_RECORD
  5
283
330
1
100
AcDbSymbolTableRecord
100
AcDbBlockTableRecord
  2
_D
340
0
  0
ENDTAB
  0
ENDSEC
  0
SECTION
  2
BLOCKS
  0
BLOCK
  5
20
330
1F
100
AcDbEntity
  8
0
100
AcDbBlockBegin
  2
*Model_Space
 70
     0
 10
0.0
 20
0.0
 30
0.0
  3
*Model_Space
  1

  0
ENDBLK
  5
21
330
1F
100
AcDbEntity
  8
0
100
AcDbBlockEnd
  0
BLOCK
  5
1C
330
1B
100
AcDbEntity
 67
     1
  8
0
100
AcDbBlockBegin
  2
*Paper_Space
 70
     0
 10
0.0
 20
0.0
 30
0.0
  3
*Paper_Space
  1

  0
ENDBLK
  5
1D
330
1B
100
AcDbEntity
 67
     1
  8
0
100
AcDbBlockEnd
  0
BLOCK
  5
24
330
23
100
AcDbEntity
  8
0
100
AcDbBlockBegin
  2
*Paper_Space0
 70
     0
 10
0.0
 20
0.0
 30
0.0
  3
*Paper_Space0
  1

  0
ENDBLK
  5
25
330
23
100
AcDbEntity
  8
0
100
AcDbBlockEnd
  0
BLOCK
  5
50
330
4F
100
AcDbEntity
  8
0
100
AcDbBlockBegin
  2
SW_NOTE_0
 70
     0
 10
0.0
 20
0.0
 30
0.0
  3
SW_NOTE_0
  1

  0
MTEXT
  5
53
330
4F
100
AcDbEntity
  8
TEXT
 62
     0
100
AcDbMText
 10
0.0
 20
12.2783702213
 30
0.0
 40
9.525
 41
0.0
 71
     1
 72
     1
  1
Scale 1:1
  7
SLDTEXTSTYLE0
 73
     1
 44
1.0
  0
MTEXT
  5
54
330
4F
100
AcDbEntity
  8
TEXT
 62
     0
100
AcDbMText
 10
0.0
 20
-0.4216296252
 30
0.0
 40
9.525
 41
0.0
 71
     1
 72
     1
  1
1 off of each part in 4mm Aluminium
  7
SLDTEXTSTYLE0
 73
     1
 44
1.0
  0
ENDBLK
  5
51
330
4F
100
AcDbEntity
  8
0
100
AcDbBlockEnd
  0
BLOCK
  5
147
330
146
100
AcDbEntity
  8
0
100
AcDbBlockBegin
  2
SW_NOTE_1
 70
     0
 10
0.0
 20
0.0
 30
0.0
  3
SW_NOTE_1
  1

  0
LINE
  5
149
330
146
100
AcDbEntity
  8
TEXT
 62
     0
100
AcDbLine
 10
0.0
 20
0.0
 30
0.0
 11
8.0487804878
 21
0.0
 31
0.0
  0
LINE
  5
14A
330
146
100
AcDbEntity
  8
TEXT
 62
     0
100
AcDbLine
 10
8.0487804878
 20
0.0
 30
0.0
 11
0.0
 21
0.0
 31
0.0
  0
LINE
  5
14B
330
146
100
AcDbEntity
  8
TEXT
 62
     0
100
AcDbLine
 10
0.0
 20
0.0
 30
0.0
 11
8.0487804878
 21
0.0
 31
0.0
  0
LINE
  5
14C
330
146
100
AcDbEntity
  8
TEXT
 62
     0
100
AcDbLine
 10
8.0487804878
 20
0.0
 30
0.0
 11
0.0
 21
0.0
 31
0.0
  0
LINE
  5
14D
330
146
100
AcDbEntity
  8
TEXT
 62
     0
100
AcDbLine
 10
0.0
 20
0.0
 30
0.0
 11
8.0487804878
 21
0.0
 31
0.0
  0
LINE
  5
14E
330
146
100
AcDbEntity
  8
TEXT
 62
     0
100
AcDbLine
 10
8.0487804878
 20
0.0
 30
0.0
 11
0.0
 21
0.0
 31
0.0
  0
MTEXT
  5
14F
330
146
100
AcDbEntity
  8
TEXT
 62
     0
100
AcDbMText
 10
0.06868262
 20
11.3367458458
 30
0.0
 40
9.525
 41
0.0
 71
     1
 72
     1
  1
9
  7
SLDTEXTSTYLE0
 73
     1
 44
1.0
  0
ENDBLK
  5
148
330
146
100
AcDbEntity
  8
0
100
AcDbBlockEnd
  0
BLOCK
  5
154
330
153
100
AcDbEntity
  8
0
100
AcDbBlockBegin
  2
SW_NOTE_2
 70
     0
 10
0.0
 20
0.0
 30
0.0
  3
SW_NOTE_2
  1

  0
LINE
  5
156
330
153
100
AcDbEntity
  8
TEXT
 62
     0
100
AcDbLine
 10
0.0
 20
0.0
 30
0.0
 11
8.0487804878
 21
0.0
 31
0.0
  0
LINE
  5
157
330
153
100
AcDbEntity
  8
TEXT
 62
     0
100
AcDbLine
 10
8.0487804878
 20
0.0
 30
0.0
 11
0.0
 21
0.0
 31
0.0
  0
LINE
  5
158
330
153
100
AcDbEntity
  8
TEXT
 62
     0
100
AcDbLine
 10
0.0
 20
0.0
 30
0.0
 11
8.0487804878
 21
0.0
 31
0.0
  0
LINE
  5
159
330
153
100
AcDbEntity
  8
TEXT
 62
     0
100
AcDbLine
 10
8.0487804878
 20
0.0
 30
0.0
 11
0.0
 21
0.0
 31
0.0
  0
LINE
  5
15A
330
153
100
AcDbEntity
  8
TEXT
 62
     0
100
AcDbLine
 10
0.0
 20
0.0
 30
0.0
 11
8.0487804878
 21
0.0
 31
0.0
  0
LINE
  5
15B
330
153
100
AcDbEntity
  8
TEXT
 62
     0
100
AcDbLine
 10
8.0487804878
 20
0.0
 30
0.0
 11
0.0
 21
0.0
 31
0.0
  0
MTEXT
  5
15C
330
153
100
AcDbEntity
  8
TEXT
 62
     0
100
AcDbMText
 10
0.029633928
 20
11.3044859896
 30
0.0
 40
9.525
 41
0.0
 71
     1
 72
     1
  1
3
  7
SLDTEXTSTYLE0
 73
     1
 44
1.0
  0
ENDBLK
  5
155
330
153
100
AcDbEntity
  8
0
100
AcDbBlockEnd
  0
BLOCK
  5
160
330
15F
100
AcDbEntity
  8
0
100
AcDbBlockBegin
  2
SW_NOTE_3
 70
     0
 10
0.0
 20
0.0
 30
0.0
  3
SW_NOTE_3
  1

  0
LINE
  5
162
330
15F
100
AcDbEntity
  8
TEXT
 62
     0
100
AcDbLine
 10
0.0
 20
0.0
 30
0.0
 11
16.2195121951
 21
0.0
 31
0.0
  0
LINE
  5
163
330
15F
100
AcDbEntity
  8
TEXT
 62
     0
100
AcDbLine
 10
16.2195121951
 20
0.0
 30
0.0
 11
0.0
 21
0.0
 31
0.0
  0
LINE
  5
164
330
15F
100
AcDbEntity
  8
TEXT
 62
     0
100
AcDbLine
 10
0.0
 20
0.0
 30
0.0
 11
16.2195121951
 21
0.0
 31
0.0
  0
LINE
  5
165
330
15F
100
AcDbEntity
  8
TEXT
 62
     0
100
AcDbLine
 10
16.2195121951
 20
0.0
 30
0.0
 11
0.0
 21
0.0
 31
0.0
  0
LINE
  5
166
330
15F
100
AcDbEntity
  8
TEXT
 62
     0
100
AcDbLine
 10
0.0
 20
0.0
 30
0.0
 11
16.2195121951
 21
0.0
 31
0.0
  0
LINE
  5
167
330
15F
100
AcDbEntity
  8
TEXT
 62
     0
100
AcDbLine
 10
16.2195121951
 20
0.0
 30
0.0
 11
0.0
 21
0.0
 31
0.0
  0
MTEXT
  5
168
330
15F
100
AcDbEntity
  8
TEXT
 62
     0
100
AcDbMText
 10
0.1127064808
 20
11.3044859896
 30
0.0
 40
9.525
 41
0.0
 71
     1
 72
     1
  1
10
  7
SLDTEXTSTYLE0
 73
     1
 44
1.0
  0
ENDBLK
  5
161
330
15F
100
AcDbEntity
  8
0
100
AcDbBlockEnd
  0
BLOCK
  5
16C
330
16B
100
AcDbEntity
  8
0
100
AcDbBlockBegin
  2
SW_NOTE_4
 70
     0
 10
0.0
 20
0.0
 30
0.0
  3
SW_NOTE_4
  1

  0
LINE
  5
16E
330
16B
100
AcDbEntity
  8
TEXT
 62
     0
100
AcDbLine
 10
0.0
 20
0.0
 30
0.0
 11
16.2195121951
 21
0.0
 31
0.0
  0
LINE
  5
16F
330
16B
100
AcDbEntity
  8
TEXT
 62
     0
100
AcDbLine
 10
16.2195121951
 20
0.0
 30
0.0
 11
0.0
 21
0.0
 31
0.0
  0
LINE
  5
170
330
16B
100
AcDbEntity
  8
TEXT
 62
     0
100
AcDbLine
 10
0.0
 20
0.0
 30
0.0
 11
16.2195121951
 21
0.0
 31
0.0
  0
LINE
  5
171
330
16B
100
AcDbEntity
  8
TEXT
 62
     0
100
AcDbLine
 10
16.2195121951
 20
0.0
 30
0.0
 11
0.0
 21
0.0
 31
0.0
  0
LINE
  5
172
330
16B
100
AcDbEntity
  8
TEXT
 62
     0
100
AcDbLine
 10
0.0
 20
0.0
 30
0.0
 11
16.2195121951
 21
0.0
 31
0.0
  0
LINE
  5
173
330
16B
100
AcDbEntity
  8
TEXT
 62
     0
100
AcDbLine
 10
16.2195121951
 20
0.0
 30
0.0
 11
0.0
 21
0.0
 31
0.0
  0
MTEXT
  5
174
330
16B
100
AcDbEntity
  8
TEXT
 62
     0
100
AcDbMText
 10
0.1206378635
 20
11.3090226199
 30
0.0
 40
9.525
 41
0.0
 71
     1
 72
     1
  1
13
  7
SLDTEXTSTYLE0
 73
     1
 44
1.0
  0
ENDBLK
  5
16D
330
16B
100
AcDbEntity
  8
0
100
AcDbBlockEnd
  0
BLOCK
  5
178
330
177
100
AcDbEntity
  8
0
100
AcDbBlockBegin
  2
SW_NOTE_5
 70
     0
 10
0.0
 20
0.0
 30
0.0
  3
SW_NOTE_5
  1

  0
LINE
  5
17A
330
177
100
AcDbEntity
  8
TEXT
 62
     0
100
AcDbLine
 10
0.0
 20
0.0
 30
0.0
 11
16.2195121951
 21
0.0
 31
0.0
  0
LINE
  5
17B
330
177
100
AcDbEntity
  8
TEXT
 62
     0
100
AcDbLine
 10
16.2195121951
 20
0.0
 30
0.0
 11
0.0
 21
0.0
 31
0.0
  0
LINE
  5
17C
330
177
100
AcDbEntity
  8
TEXT
 62
     0
100
AcDbLine
 10
0.0
 20
0.0
 30
0.0
 11
16.2195121951
 21
0.0
 31
0.0
  0
LINE
  5
17D
330
177
100
AcDbEntity
  8
TEXT
 62
     0
100
AcDbLine
 10
16.2195121951
 20
0.0
 30
0.0
 11
0.0
 21
0.0
 31
0.0
  0
LINE
  5
17E
330
177
100
AcDbEntity
  8
TEXT
 62
     0
100
AcDbLine
 10
0.0
 20
0.0
 30
0.0
 11
16.2195121951
 21
0.0
 31
0.0
  0
LINE
  5
17F
330
177
100
AcDbEntity
  8
TEXT
 62
     0
100
AcDbLine
 10
16.2195121951
 20
0.0
 30
0.0
 11
0.0
 21
0.0
 31
0.0
  0
MTEXT
  5
180
330
177
100
AcDbEntity
  8
TEXT
 62
     0
100
AcDbMText
 10
0.0670238476
 20
11.3090226199
 30
0.0
 40
9.525
 41
0.0
 71
     1
 72
     1
  1
12
  7
SLDTEXTSTYLE0
 73
     1
 44
1.0
  0
ENDBLK
  5
179
330
177
100
AcDbEntity
  8
0
100
AcDbBlockEnd
  0
BLOCK
  5
184
330
183
100
AcDbEntity
  8
0
100
AcDbBlockBegin
  2
SW_NOTE_6
 70
     0
 10
0.0
 20
0.0
 30
0.0
  3
SW_NOTE_6
  1

  0
LINE
  5
186
330
183
100
AcDbEntity
  8
TEXT
 62
     0
100
AcDbLine
 10
0.0
 20
0.0
 30
0.0
 11
16.2195121951
 21
0.0
 31
0.0
  0
LINE
  5
187
330
183
100
AcDbEntity
  8
TEXT
 62
     0
100
AcDbLine
 10
16.2195121951
 20
0.0
 30
0.0
 11
0.0
 21
0.0
 31
0.0
  0
LINE
  5
188
330
183
100
AcDbEntity
  8
TEXT
 62
     0
100
AcDbLine
 10
0.0
 20
0.0
 30
0.0
 11
16.2195121951
 21
0.0
 31
0.0
  0
LINE
  5
189
330
183
100
AcDbEntity
  8
TEXT
 62
     0
100
AcDbLine
 10
16.2195121951
 20
0.0
 30
0.0
 11
0.0
 21
0.0
 31
0.0
  0
LINE
  5
18A
330
183
100
AcDbEntity
  8
TEXT
 62
     0
100
AcDbLine
 10
0.0
 20
0.0
 30
0.0
 11
16.2195121951
 21
0.0
 31
0.0
  0
LINE
  5
18B
330
183
100
AcDbEntity
  8
TEXT
 62
     0
100
AcDbLine
 10
16.2195121951
 20
0.0
 30
0.0
 11
0.0
 21
0.0
 31
0.0
  0
MTEXT
  5
18C
330
183
100
AcDbEntity
  8
TEXT
 62
     0
100
AcDbMText
 10
0.1059201517
 20
11.3480615252
 30
0.0
 40
9.525
 41
0.0
 71
     1
 72
     1
  1
11
  7
SLDTEXTSTYLE0
 73
     1
 44
1.0
  0
ENDBLK
  5
185
330
183
100
AcDbEntity
  8
0
100
AcDbBlockEnd
  0
BLOCK
  5
190
330
18F
100
AcDbEntity
  8
0
100
AcDbBlockBegin
  2
SW_NOTE_7
 70
     0
 10
0.0
 20
0.0
 30
0.0
  3
SW_NOTE_7
  1

  0
LINE
  5
192
330
18F
100
AcDbEntity
  8
TEXT
 62
     0
100
AcDbLine
 10
0.0
 20
0.0
 30
0.0
 11
8.1707317073
 21
0.0
 31
0.0
  0
LINE
  5
193
330
18F
100
AcDbEntity
  8
TEXT
 62
     0
100
AcDbLine
 10
8.1707317073
 20
0.0
 30
0.0
 11
0.0
 21
0.0
 31
0.0
  0
LINE
  5
194
330
18F
100
AcDbEntity
  8
TEXT
 62
     0
100
AcDbLine
 10
0.0
 20
0.0
 30
0.0
 11
8.1707317073
 21
0.0
 31
0.0
  0
LINE
  5
195
330
18F
100
AcDbEntity
  8
TEXT
 62
     0
100
AcDbLine
 10
8.1707317073
 20
0.0
 30
0.0
 11
0.0
 21
0.0
 31
0.0
  0
LINE
  5
196
330
18F
100
AcDbEntity
  8
TEXT
 62
     0
100
AcDbLine
 10
0.0
 20
0.0
 30
0.0
 11
8.1707317073
 21
0.0
 31
0.0
  0
LINE
  5
197
330
18F
100
AcDbEntity
  8
TEXT
 62
     0
100
AcDbLine
 10
8.1707317073
 20
0.0
 30
0.0
 11
0.0
 21
0.0
 31
0.0
  0
MTEXT
  5
198
330
18F
100
AcDbEntity
  8
TEXT
 62
     0
100
AcDbMText
 10
0.0975054722
 20
11.3483048971
 30
0.0
 40
9.525
 41
0.0
 71
     1
 72
     1
  1
1
  7
SLDTEXTSTYLE0
 73
     1
 44
1.0
  0
ENDBLK
  5
191
330
18F
100
AcDbEntity
  8
0
100
AcDbBlockEnd
  0
BLOCK
  5
19C
330
19B
100
AcDbEntity
  8
0
100
AcDbBlockBegin
  2
SW_NOTE_8
 70
     0
 10
0.0
 20
0.0
 30
0.0
  3
SW_NOTE_8
  1

  0
LINE
  5
19E
330
19B
100
AcDbEntity
  8
TEXT
 62
     0
100
AcDbLine
 10
0.0
 20
0.0
 30
0.0
 11
8.0487804878
 21
0.0
 31
0.0
  0
LINE
  5
19F
330
19B
100
AcDbEntity
  8
TEXT
 62
     0
100
AcDbLine
 10
8.0487804878
 20
0.0
 30
0.0
 11
0.0
 21
0.0
 31
0.0
  0
LINE
  5
1A0
330
19B
100
AcDbEntity
  8
TEXT
 62
     0
100
AcDbLine
 10
0.0
 20
0.0
 30
0.0
 11
8.0487804878
 21
0.0
 31
0.0
  0
LINE
  5
1A1
330
19B
100
AcDbEntity
  8
TEXT
 62
     0
100
AcDbLine
 10
8.0487804878
 20
0.0
 30
0.0
 11
0.0
 21
0.0
 31
0.0
  0
LINE
  5
1A2
330
19B
100
AcDbEntity
  8
TEXT
 62
     0
100
AcDbLine
 10
0.0
 20
0.0
 30
0.0
 11
8.0487804878
 21
0.0
 31
0.0
  0
LINE
  5
1A3
330
19B
100
AcDbEntity
  8
TEXT
 62
     0
100
AcDbLine
 10
8.0487804878
 20
0.0
 30
0.0
 11
0.0
 21
0.0
 31
0.0
  0
MTEXT
  5
1A4
330
19B
100
AcDbEntity
  8
TEXT
 62
     0
100
AcDbMText
 10
0.0727981089
 20
11.3480615252
 30
0.0
 40
9.525
 41
0.0
 71
     1
 72
     1
  1
7
  7
SLDTEXTSTYLE0
 73
     1
 44
1.0
  0
ENDBLK
  5
19D
330
19B
100
AcDbEntity
  8
0
100
AcDbBlockEnd
  0
BLOCK
  5
1A8
330
1A7
100
AcDbEntity
  8
0
100
AcDbBlockBegin
  2
SW_NOTE_9
 70
     0
 10
0.0
 20
0.0
 30
0.0
  3
SW_NOTE_9
  1

  0
LINE
  5
1AA
330
1A7
100
AcDbEntity
  8
TEXT
 62
     0
100
AcDbLine
 10
0.0
 20
0.0
 30
0.0
 11
8.0487804878
 21
0.0
 31
0.0
  0
LINE
  5
1AB
330
1A7
100
AcDbEntity
  8
TEXT
 62
     0
100
AcDbLine
 10
8.0487804878
 20
0.0
 30
0.0
 11
0.0
 21
0.0
 31
0.0
  0
LINE
  5
1AC
330
1A7
100
AcDbEntity
  8
TEXT
 62
     0
100
AcDbLine
 10
0.0
 20
0.0
 30
0.0
 11
8.0487804878
 21
0.0
 31
0.0
  0
LINE
  5
1AD
330
1A7
100
AcDbEntity
  8
TEXT
 62
     0
100
AcDbLine
 10
8.0487804878
 20
0.0
 30
0.0
 11
0.0
 21
0.0
 31
0.0
  0
LINE
  5
1AE
330
1A7
100
AcDbEntity
  8
TEXT
 62
     0
100
AcDbLine
 10
0.0
 20
0.0
 30
0.0
 11
8.0487804878
 21
0.0
 31
0.0
  0
LINE
  5
1AF
330
1A7
100
AcDbEntity
  8
TEXT
 62
     0
100
AcDbLine
 10
8.0487804878
 20
0.0
 30
0.0
 11
0.0
 21
0.0
 31
0.0
  0
MTEXT
  5
1B0
330
1A7
100
AcDbEntity
  8
TEXT
 62
     0
100
AcDbMText
 10
0.0522351343
 20
11.3480615252
 30
0.0
 40
9.525
 41
0.0
 71
     1
 72
     1
  1
8
  7
SLDTEXTSTYLE0
 73
     1
 44
1.0
  0
ENDBLK
  5
1A9
330
1A7
100
AcDbEntity
  8
0
100
AcDbBlockEnd
  0
BLOCK
  5
1B4
330
1B3
100
AcDbEntity
  8
0
100
AcDbBlockBegin
  2
SW_NOTE_10
 70
     0
 10
0.0
 20
0.0
 30
0.0
  3
SW_NOTE_10
  1

  0
LINE
  5
1B6
330
1B3
100
AcDbEntity
  8
TEXT
 62
     0
100
AcDbLine
 10
0.0
 20
0.0
 30
0.0
 11
8.1707317073
 21
0.0
 31
0.0
  0
LINE
  5
1B7
330
1B3
100
AcDbEntity
  8
TEXT
 62
     0
100
AcDbLine
 10
8.1707317073
 20
0.0
 30
0.0
 11
0.0
 21
0.0
 31
0.0
  0
LINE
  5
1B8
330
1B3
100
AcDbEntity
  8
TEXT
 62
     0
100
AcDbLine
 10
0.0
 20
0.0
 30
0.0
 11
8.1707317073
 21
0.0
 31
0.0
  0
LINE
  5
1B9
330
1B3
100
AcDbEntity
  8
TEXT
 62
     0
100
AcDbLine
 10
8.1707317073
 20
0.0
 30
0.0
 11
0.0
 21
0.0
 31
0.0
  0
LINE
  5
1BA
330
1B3
100
AcDbEntity
  8
TEXT
 62
     0
100
AcDbLine
 10
0.0
 20
0.0
 30
0.0
 11
8.1707317073
 21
0.0
 31
0.0
  0
LINE
  5
1BB
330
1B3
100
AcDbEntity
  8
TEXT
 62
     0
100
AcDbLine
 10
8.1707317073
 20
0.0
 30
0.0
 11
0.0
 21
0.0
 31
0.0
  0
MTEXT
  5
1BC
330
1B3
100
AcDbEntity
  8
TEXT
 62
     0
100
AcDbMText
 10
0.095141831
 20
11.3480615252
 30
0.0
 40
9.525
 41
0.0
 71
     1
 72
     1
  1
2
  7
SLDTEXTSTYLE0
 73
     1
 44
1.0
  0
ENDBLK
  5
1B5
330
1B3
100
AcDbEntity
  8
0
100
AcDbBlockEnd
  0
BLOCK
  5
1C0
330
1BF
100
AcDbEntity
  8
0
100
AcDbBlockBegin
  2
SW_NOTE_11
 70
     0
 10
0.0
 20
0.0
 30
0.0
  3
SW_NOTE_11
  1

  0
LINE
  5
1C2
330
1BF
100
AcDbEntity
  8
TEXT
 62
     0
100
AcDbLine
 10
0.0
 20
0.0
 30
0.0
 11
8.1707317073
 21
0.0
 31
0.0
  0
LINE
  5
1C3
330
1BF
100
AcDbEntity
  8
TEXT
 62
     0
100
AcDbLine
 10
8.1707317073
 20
0.0
 30
0.0
 11
0.0
 21
0.0
 31
0.0
  0
LINE
  5
1C4
330
1BF
100
AcDbEntity
  8
TEXT
 62
     0
100
AcDbLine
 10
0.0
 20
0.0
 30
0.0
 11
8.1707317073
 21
0.0
 31
0.0
  0
LINE
  5
1C5
330
1BF
100
AcDbEntity
  8
TEXT
 62
     0
100
AcDbLine
 10
8.1707317073
 20
0.0
 30
0.0
 11
0.0
 21
0.0
 31
0.0
  0
LINE
  5
1C6
330
1BF
100
AcDbEntity
  8
TEXT
 62
     0
100
AcDbLine
 10
0.0
 20
0.0
 30
0.0
 11
8.1707317073
 21
0.0
 31
0.0
  0
LINE
  5
1C7
330
1BF
100
AcDbEntity
  8
TEXT
 62
     0
100
AcDbLine
 10
8.1707317073
 20
0.0
 30
0.0
 11
0.0
 21
0.0
 31
0.0
  0
MTEXT
  5
1C8
330
1BF
100
AcDbEntity
  8
TEXT
 62
     0
100
AcDbMText
 10
0.0935184407
 20
11.3480615252
 30
0.0
 40
9.525
 41
0.0
 71
     1
 72
     1
  1
2
  7
SLDTEXTSTYLE0
 73
     1
 44
1.0
  0
ENDBLK
  5
1C1
330
1BF
100
AcDbEntity
  8
0
100
AcDbBlockEnd
  0
BLOCK
  5
1CC
330
1CB
100
AcDbEntity
  8
0
100
AcDbBlockBegin
  2
SW_NOTE_12
 70
     0
 10
0.0
 20
0.0
 30
0.0
  3
SW_NOTE_12
  1

  0
LINE
  5
1CE
330
1CB
100
AcDbEntity
  8
TEXT
 62
     0
100
AcDbLine
 10
0.0
 20
0.0
 30
0.0
 11
16.0975609756
 21
0.0
 31
0.0
  0
LINE
  5
1CF
330
1CB
100
AcDbEntity
  8
TEXT
 62
     0
100
AcDbLine
 10
16.0975609756
 20
0.0
 30
0.0
 11
0.0
 21
0.0
 31
0.0
  0
LINE
  5
1D0
330
1CB
100
AcDbEntity
  8
TEXT
 62
     0
100
AcDbLine
 10
0.0
 20
0.0
 30
0.0
 11
16.0975609756
 21
0.0
 31
0.0
  0
LINE
  5
1D1
330
1CB
100
AcDbEntity
  8
TEXT
 62
     0
100
AcDbLine
 10
16.0975609756
 20
0.0
 30
0.0
 11
0.0
 21
0.0
 31
0.0
  0
LINE
  5
1D2
330
1CB
100
AcDbEntity
  8
TEXT
 62
     0
100
AcDbLine
 10
0.0
 20
0.0
 30
0.0
 11
16.0975609756
 21
0.0
 31
0.0
  0
LINE
  5
1D3
330
1CB
100
AcDbEntity
  8
TEXT
 62
     0
100
AcDbLine
 10
16.0975609756
 20
0.0
 30
0.0
 11
0.0
 21
0.0
 31
0.0
  0
MTEXT
  5
1D4
330
1CB
100
AcDbEntity
  8
TEXT
 62
     0
100
AcDbMText
 10
0.0418929361
 20
11.3372749543
 30
0.0
 40
9.525
 41
0.0
 71
     1
 72
     1
  1
14
  7
SLDTEXTSTYLE0
 73
     1
 44
1.0
  0
ENDBLK
  5
1CD
330
1CB
100
AcDbEntity
  8
0
100
AcDbBlockEnd
  0
BLOCK
  5
1D8
330
1D7
100
AcDbEntity
  8
0
100
AcDbBlockBegin
  2
SW_NOTE_13
 70
     0
 10
0.0
 20
0.0
 30
0.0
  3
SW_NOTE_13
  1

  0
LINE
  5
1DA
330
1D7
100
AcDbEntity
  8
TEXT
 62
     0
100
AcDbLine
 10
0.0
 20
0.0
 30
0.0
 11
16.2195121951
 21
0.0
 31
0.0
  0
LINE
  5
1DB
330
1D7
100
AcDbEntity
  8
TEXT
 62
     0
100
AcDbLine
 10
16.2195121951
 20
0.0
 30
0.0
 11
0.0
 21
0.0
 31
0.0
  0
LINE
  5
1DC
330
1D7
100
AcDbEntity
  8
TEXT
 62
     0
100
AcDbLine
 10
0.0
 20
0.0
 30
0.0
 11
16.2195121951
 21
0.0
 31
0.0
  0
LINE
  5
1DD
330
1D7
100
AcDbEntity
  8
TEXT
 62
     0
100
AcDbLine
 10
16.2195121951
 20
0.0
 30
0.0
 11
0.0
 21
0.0
 31
0.0
  0
LINE
  5
1DE
330
1D7
100
AcDbEntity
  8
TEXT
 62
     0
100
AcDbLine
 10
0.0
 20
0.0
 30
0.0
 11
16.2195121951
 21
0.0
 31
0.0
  0
LINE
  5
1DF
330
1D7
100
AcDbEntity
  8
TEXT
 62
     0
100
AcDbLine
 10
16.2195121951
 20
0.0
 30
0.0
 11
0.0
 21
0.0
 31
0.0
  0
MTEXT
  5
1E0
330
1D7
100
AcDbEntity
  8
TEXT
 62
     0
100
AcDbMText
 10
0.0944401143
 20
11.3372749543
 30
0.0
 40
9.525
 41
0.0
 71
     1
 72
     1
  1
14
  7
SLDTEXTSTYLE0
 73
     1
 44
1.0
  0
ENDBLK
  5
1D9
330
1D7
100
AcDbEntity
  8
0
100
AcDbBlockEnd
  0
BLOCK
  5
1E4
330
1E3
100
AcDbEntity
  8
0
100
AcDbBlockBegin
  2
SW_NOTE_14
 70
     0
 10
0.0
 20
0.0
 30
0.0
  3
SW_NOTE_14
  1

  0
LINE
  5
1E6
330
1E3
100
AcDbEntity
  8
TEXT
 62
     0
100
AcDbLine
 10
0.0
 20
0.0
 30
0.0
 11
16.2195121951
 21
0.0
 31
0.0
  0
LINE
  5
1E7
330
1E3
100
AcDbEntity
  8
TEXT
 62
     0
100
AcDbLine
 10
16.2195121951
 20
0.0
 30
0.0
 11
0.0
 21
0.0
 31
0.0
  0
LINE
  5
1E8
330
1E3
100
AcDbEntity
  8
TEXT
 62
     0
100
AcDbLine
 10
0.0
 20
0.0
 30
0.0
 11
16.2195121951
 21
0.0
 31
0.0
  0
LINE
  5
1E9
330
1E3
100
AcDbEntity
  8
TEXT
 62
     0
100
AcDbLine
 10
16.2195121951
 20
0.0
 30
0.0
 11
0.0
 21
0.0
 31
0.0
  0
LINE
  5
1EA
330
1E3
100
AcDbEntity
  8
TEXT
 62
     0
100
AcDbLine
 10
0.0
 20
0.0
 30
0.0
 11
16.2195121951
 21
0.0
 31
0.0
  0
LINE
  5
1EB
330
1E3
100
AcDbEntity
  8
TEXT
 62
     0
100
AcDbLine
 10
16.2195121951
 20
0.0
 30
0.0
 11
0.0
 21
0.0
 31
0.0
  0
MTEXT
  5
1EC
330
1E3
100
AcDbEntity
  8
TEXT
 62
     0
100
AcDbMText
 10
0.0897000099
 20
11.3372749543
 30
0.0
 40
9.525
 41
0.0
 71
     1
 72
     1
  1
16
  7
SLDTEXTSTYLE0
 73
     1
 44
1.0
  0
ENDBLK
  5
1E5
330
1E3
100
AcDbEntity
  8
0
100
AcDbBlockEnd
  0
BLOCK
  5
1F0
330
1EF
100
AcDbEntity
  8
0
100
AcDbBlockBegin
  2
SW_NOTE_15
 70
     0
 10
0.0
 20
0.0
 30
0.0
  3
SW_NOTE_15
  1

  0
LINE
  5
1F2
330
1EF
100
AcDbEntity
  8
TEXT
 62
     0
100
AcDbLine
 10
0.0
 20
0.0
 30
0.0
 11
16.2195121951
 21
0.0
 31
0.0
  0
LINE
  5
1F3
330
1EF
100
AcDbEntity
  8
TEXT
 62
     0
100
AcDbLine
 10
16.2195121951
 20
0.0
 30
0.0
 11
0.0
 21
0.0
 31
0.0
  0
LINE
  5
1F4
330
1EF
100
AcDbEntity
  8
TEXT
 62
     0
100
AcDbLine
 10
0.0
 20
0.0
 30
0.0
 11
16.2195121951
 21
0.0
 31
0.0
  0
LINE
  5
1F5
330
1EF
100
AcDbEntity
  8
TEXT
 62
     0
100
AcDbLine
 10
16.2195121951
 20
0.0
 30
0.0
 11
0.0
 21
0.0
 31
0.0
  0
LINE
  5
1F6
330
1EF
100
AcDbEntity
  8
TEXT
 62
     0
100
AcDbLine
 10
0.0
 20
0.0
 30
0.0
 11
16.2195121951
 21
0.0
 31
0.0
  0
LINE
  5
1F7
330
1EF
100
AcDbEntity
  8
TEXT
 62
     0
100
AcDbLine
 10
16.2195121951
 20
0.0
 30
0.0
 11
0.0
 21
0.0
 31
0.0
  0
MTEXT
  5
1F8
330
1EF
100
AcDbEntity
  8
TEXT
 62
     0
100
AcDbMText
 10
0.1055907601
 20
11.3372749543
 30
0.0
 40
9.525
 41
0.0
 71
     1
 72
     1
  1
15
  7
SLDTEXTSTYLE0
 73
     1
 44
1.0
  0
ENDBLK
  5
1F1
330
1EF
100
AcDbEntity
  8
0
100
AcDbBlockEnd
  0
BLOCK
  5
1FC
330
1FB
100
AcDbEntity
  8
0
100
AcDbBlockBegin
  2
SW_NOTE_16
 70
     0
 10
0.0
 20
0.0
 30
0.0
  3
SW_NOTE_16
  1

  0
LINE
  5
1FE
330
1FB
100
AcDbEntity
  8
TEXT
 62
     0
100
AcDbLine
 10
0.0
 20
0.0
 30
0.0
 11
16.0975609756
 21
0.0
 31
0.0
  0
LINE
  5
1FF
330
1FB
100
AcDbEntity
  8
TEXT
 62
     0
100
AcDbLine
 10
16.0975609756
 20
0.0
 30
0.0
 11
0.0
 21
0.0
 31
0.0
  0
LINE
  5
200
330
1FB
100
AcDbEntity
  8
TEXT
 62
     0
100
AcDbLine
 10
0.0
 20
0.0
 30
0.0
 11
16.0975609756
 21
0.0
 31
0.0
  0
LINE
  5
201
330
1FB
100
AcDbEntity
  8
TEXT
 62
     0
100
AcDbLine
 10
16.0975609756
 20
0.0
 30
0.0
 11
0.0
 21
0.0
 31
0.0
  0
LINE
  5
202
330
1FB
100
AcDbEntity
  8
TEXT
 62
     0
100
AcDbLine
 10
0.0
 20
0.0
 30
0.0
 11
16.0975609756
 21
0.0
 31
0.0
  0
LINE
  5
203
330
1FB
100
AcDbEntity
  8
TEXT
 62
     0
100
AcDbLine
 10
16.0975609756
 20
0.0
 30
0.0
 11
0.0
 21
0.0
 31
0.0
  0
MTEXT
  5
204
330
1FB
100
AcDbEntity
  8
TEXT
 62
     0
100
AcDbMText
 10
0.0429671408
 20
11.3372749543
 30
0.0
 40
9.525
 41
0.0
 71
     1
 72
     1
  1
15
  7
SLDTEXTSTYLE0
 73
     1
 44
1.0
  0
ENDBLK
  5
1FD
330
1FB
100
AcDbEntity
  8
0
100
AcDbBlockEnd
  0
BLOCK
  5
27A
330
279
100
AcDbEntity
  8
0
100
AcDbBlockBegin
  2
_NONE
 70
     0
 10
0.0
 20
0.0
 30
0.0
  3
_NONE
  1

  0
ENDBLK
  5
27B
330
279
100
AcDbEntity
  8
0
100
AcDbBlockEnd
  0
BLOCK
  5
27D
330
27C
100
AcDbEntity
  8
0
100
AcDbBlockBegin
  2
_CLOSED
 70
     0
 10
0.0
 20
0.0
 30
0.0
  3
_CLOSED
  1

  0
LINE
  5
27F
330
27C
100
AcDbEntity
  8
0
  6
ByBlock
 62
     0
370
    -2
100
AcDbLine
 10
-1.0
 20
0.166667
 30
0.0
 11
0.0
 21
0.0
 31
0.0
  0
LINE
  5
280
330
27C
100
AcDbEntity
  8
0
  6
ByBlock
 62
     0
370
    -2
100
AcDbLine
 10
0.0
 20
0.0
 30
0.0
 11
-1.0
 21
-0.166667
 31
0.0
  0
LINE
  5
281
330
27C
100
AcDbEntity
  8
0
  6
ByBlock
 62
     0
370
    -2
100
AcDbLine
 10
-1.0
 20
0.166667
 30
0.0
 11
-1.0
 21
-0.166667
 31
0.0
  0
LINE
  5
282
330
27C
100
AcDbEntity
  8
0
  6
ByBlock
 62
     0
370
    -2
100
AcDbLine
 10
0.0
 20
0.0
 30
0.0
 11
-1.0
 21
0.0
 31
0.0
  0
ENDBLK
  5
27E
330
27C
100
AcDbEntity
  8
0
100
AcDbBlockEnd
  0
BLOCK
  5
284
330
283
100
AcDbEntity
  8
0
100
AcDbBlockBegin
  2
_D
 70
     0
 10
0.0
 20
0.0
 30
0.0
  3
_D
  1

  0
INSERT
  5
286
330
283
100
AcDbEntity
  8
TEXT
100
AcDbBlockReference
  2
_CLOSED
 10
428.976744048
 20
487.2034209564
 30
88.6
 41
4.72
 42
4.72
 50
239.9838840408
  0
LINE
  5
287
330
283
100
AcDbEntity
  8
TEXT
100
AcDbLine
 10
428.976744048
 20
487.2034209564
 30
0.0
 11
456.5289049839
 21
534.8941795425
 31
0.0
  0
LINE
  5
288
330
283
100
AcDbEntity
  8
TEXT
100
AcDbLine
 10
337.9324137882
 20
329.6123998684
 30
0.0
 11
428.976744048
 21
487.2034209564
 31
0.0
  0
LINE
  5
289
330
283
100
AcDbEntity
  8
TEXT
100
AcDbLine
 10
456.5289049839
 20
534.8941795425
 30
0.0
 11
480.6570304726
 21
534.8941795425
 31
0.0
  0
MTEXT
  5
28A
330
283
100
AcDbEntity
  8
TEXT
100
AcDbMText
 10
459.5289049839
 20
538.7613827619
 30
88.6
 40
3.0
 41
0.0
 71
     1
 72
     1
  1
%%c
  7
SLDTEXTSTYLE0
 73
     1
 44
1.0
  0
MTEXT
  5
28B
330
283
100
AcDbEntity
  8
TEXT
100
AcDbMText
 10
464.0611965378
 20
538.7738827406
 30
88.6
 40
3.0
 41
0.0
 71
     1
 72
     1
  1
182.00
  7
SLDTEXTSTYLE0
 73
     1
 44
1.0
  0
ENDBLK
  5
285
330
283
100
AcDbEntity
  8
0
100
AcDbBlockEnd
  0
ENDSEC
  0
SECTION
  2
ENTITIES
  0
INSERT
  5
55
330
1F
100
AcDbEntity
  8
TEXT
100
AcDbBlockReference
  2
SW_NOTE_0
 10
928.0458545803
 20
39.544053486
 30
0.0
  0
CIRCLE
  5
56
330
1F
100
AcDbEntity
  8
0
  6
Continuous
 62
     7
370
    15
100
AcDbCircle
 10
974.8590742625
 20
693.4508718795
 30
0.0
 40
12.09999999999991
  0
CIRCLE
  5
57
330
1F
100
AcDbEntity
  8
0
  6
Continuous
 62
     7
370
    15
100
AcDbCircle
 10
1084.8590742625
 20
693.4508718795
 30
0.0
 40
13.0
  0
CIRCLE
  5
58
330
1F
100
AcDbEntity
  8
0
  6
Continuous
 62
     7
370
    15
100
AcDbCircle
 10
1118.3590742625
 20
693.4508718795
 30
0.0
 40
2.000000000000227
  0
CIRCLE
  5
59
330
1F
100
AcDbEntity
  8
0
  6
Continuous
 62
     7
370
    15
100
AcDbCircle
 10
1068.1090742625
 20
722.4627229063
 30
0.0
 40
1.999999999999967
  0
CIRCLE
  5
5A
330
1F
100
AcDbEntity
  8
0
  6
Continuous
 62
     7
370
    15
100
AcDbCircle
 10
1068.1090742625
 20
664.4390208528
 30
0.0
 40
1.999999999999952
  0
CIRCLE
  5
5B
330
1F
100
AcDbEntity
  8
0
  6
Continuous
 62
     7
370
    15
100
AcDbCircle
 10
974.8590742625
 20
754.4508718795
 30
0.0
 40
25.09999999999991
  0
CIRCLE
  5
5C
330
1F
100
AcDbEntity
  8
0
  6
Continuous
 62
     7
370
    15
100
AcDbCircle
 10
1006.3570198399
 20
693.8106279062
 30
0.0
 40
4.0
  0
CIRCLE
  5
5D
330
1F
100
AcDbEntity
  8
0
  6
Continuous
 62
     7
370
    15
100
AcDbCircle
 10
943.361128685
 20
693.0911158528
 30
0.0
 40
4.000000000000227
  0
LINE
  5
5E
330
1F
100
AcDbEntity
  8
0
  6
Continuous
 62
     7
370
    15
100
AcDbLine
 10
997.9399833534
 20
781.47513919
 30
0.0
 11
1100.8635288079
 21
754.4874792124
 31
0.0
  0
CIRCLE
  5
5F
330
1F
100
AcDbEntity
  8
0
  6
Continuous
 62
     7
370
    15
100
AcDbCircle
 10
1022.593327939
 20
628.0105095185
 30
0.0
 40
2.999999999999886
  0
CIRCLE
  5
60
330
1F
100
AcDbEntity
  8
0
  6
Continuous
 62
     7
370
    15
100
AcDbCircle
 10
1018.523335828
 20
765.7399046964
 30
0.0
 40
3.000000000000114
  0
CIRCLE
  5
61
330
1F
100
AcDbEntity
  8
0
  6
Continuous
 62
     7
370
    15
100
AcDbCircle
 10
930.2455731371
 20
761.0573472894
 30
0.0
 40
3.0
  0
CIRCLE
  5
62
330
1F
100
AcDbEntity
  8
0
  6
Continuous
 62
     7
370
    15
100
AcDbCircle
 10
893.8944173559
 20
691.0583142527
 30
0.0
 40
3.0
  0
CIRCLE
  5
63
330
1F
100
AcDbEntity
  8
0
  6
Continuous
 62
     7
370
    15
100
AcDbCircle
 10
934.3155652481
 20
623.3279521114
 30
0.0
 40
2.999999999999886
  0
CIRCLE
  5
64
330
1F
100
AcDbEntity
  8
0
  6
Continuous
 62
     7
370
    15
100
AcDbCircle
 10
1032.9590742625
 20
693.4508718795
 30
0.0
 40
3.0
  0
CIRCLE
  5
65
330
1F
100
AcDbEntity
  8
0
  6
Continuous
 62
     7
370
    15
100
AcDbCircle
 10
1098.3271651716
 20
642.0872609544
 30
0.0
 40
3.0
  0
CIRCLE
  5
66
330
1F
100
AcDbEntity
  8
0
  6
Continuous
 62
     7
370
    15
100
AcDbCircle
 10
1137.9590742625
 20
693.4508718795
 30
0.0
 40
3.0
  0
CIRCLE
  5
67
330
1F
100
AcDbEntity
  8
0
  6
Continuous
 62
     7
370
    15
100
AcDbCircle
 10
1098.3271651716
 20
744.8144828046
 30
0.0
 40
3.0
  0
LINE
  5
68
330
1F
100
AcDbEntity
  8
0
  6
Continuous
 62
     7
370
    15
100
AcDbLine
 10
1100.8635288079
 20
632.4142645467
 30
0.0
 11
997.9399833534
 21
605.4266045691
 31
0.0
  0
ARC
  5
69
330
1F
100
AcDbEntity
  8
0
  6
Continuous
 62
     7
370
    15
100
AcDbCircle
 10
974.8590742625
 20
693.4508718795
 30
0.0
 40
91.00000000000006
100
AcDbArc
 50
75.3072016878
 51
284.6927983122
  0
ARC
  5
6A
330
1F
100
AcDbEntity
  8
0
  6
Continuous
 62
     7
370
    15
100
AcDbCircle
 10
1084.8590742625
 20
693.4508718795
 30
0.0
 40
63.10000000000005
100
AcDbArc
 50
284.6927983122
 51
75.3072016878
  0
CIRCLE
  5
6B
330
1F
100
AcDbEntity
  8
0
  6
Continuous
 62
     7
370
    15
100
AcDbCircle
 10
1001.1151789522
 20
451.4858085487
 30
0.0
 40
2.099999999999909
  0
CIRCLE
  5
6C
330
1F
100
AcDbEntity
  8
0
  6
Continuous
 62
     7
370
    15
100
AcDbCircle
 10
1036.4114961625
 20
399.8695861958
 30
0.0
 40
2.999999999999773
  0
CIRCLE
  5
6D
330
1F
100
AcDbEntity
  8
0
  6
Continuous
 62
     7
370
    15
100
AcDbCircle
 10
986.0901789522
 20
451.4858085487
 30
0.0
 40
10.04999999999995
  0
LINE
  5
6E
330
1F
100
AcDbEntity
  8
0
  6
Continuous
 62
     7
370
    15
100
AcDbLine
 10
1042.989461271
 20
404.4226483556
 30
0.0
 11
1002.5350917236
 21
462.8684639482
 31
0.0
  0
ARC
  5
6F
330
1F
100
AcDbEntity
  8
0
  6
Continuous
 62
     7
370
    15
100
AcDbCircle
 10
1036.4114961625
 20
399.8695861958
 30
0.0
 40
8.000000000000036
100
AcDbArc
 50
303.5081678415
 51
34.6897732831
  0
LINE
  5
70
330
1F
100
AcDbEntity
  8
0
  6
Continuous
 62
     7
370
    15
100
AcDbLine
 10
991.5215201872
 20
360.5538106253
 30
0.0
 11
1040.8279430017
 21
393.1991291413
 31
0.0
  0
ARC
  5
71
330
1F
100
AcDbEntity
  8
0
  6
Continuous
 62
     7
370
    15
100
AcDbCircle
 10
987.105073348
 20
367.2242676798
 30
0.0
 40
8.000000000000036
100
AcDbArc
 50
188.877014348
 51
303.5081678415
  0
LINE
  5
72
330
1F
100
AcDbEntity
  8
0
  6
Continuous
 62
     7
370
    15
100
AcDbLine
 10
966.3297419072
 20
448.3995279736
 30
0.0
 11
979.2008985299
 21
365.9897554498
 31
0.0
  0
ARC
  5
73
330
1F
100
AcDbEntity
  8
0
  6
Continuous
 62
     7
370
    15
100
AcDbCircle
 10
986.0901789522
 20
451.4858085487
 30
0.0
 40
19.99999999999995
100
AcDbArc
 50
34.6897732831
 51
188.877014348
  0
CIRCLE
  5
74
330
1F
100
AcDbEntity
  8
0
  6
Continuous
 62
     7
370
    15
100
AcDbCircle
 10
987.105073348
 20
367.2242676798
 30
0.0
 40
3.0
  0
CIRCLE
  5
75
330
1F
100
AcDbEntity
  8
0
  6
Continuous
 62
     7
370
    15
100
AcDbCircle
 10
971.0651789522
 20
451.4858085487
 30
0.0
 40
2.100000000000023
  0
CIRCLE
  5
76
330
1F
100
AcDbEntity
  8
0
  6
Continuous
 62
     7
370
    15
100
AcDbCircle
 10
766.4147497329
 20
409.8206390067
 30
0.0
 40
13.0
  0
CIRCLE
  5
77
330
1F
100
AcDbEntity
  8
0
  6
Continuous
 62
     7
370
    15
100
AcDbCircle
 10
799.9147497329
 20
409.8206390067
 30
0.0
 40
2.0
  0
CIRCLE
  5
78
330
1F
100
AcDbEntity
  8
0
  6
Continuous
 62
     7
370
    15
100
AcDbCircle
 10
766.4147497329
 20
409.8206390067
 30
0.0
 40
49.99999999999989
  0
CIRCLE
  5
79
330
1F
100
AcDbEntity
  8
0
  6
Continuous
 62
     7
370
    15
100
AcDbCircle
 10
749.6647497329
 20
438.8324900335
 30
0.0
 40
2.0
  0
CIRCLE
  5
7A
330
1F
100
AcDbEntity
  8
0
  6
Continuous
 62
     7
370
    15
100
AcDbCircle
 10
749.6647497329
 20
380.8087879799
 30
0.0
 40
2.0
  0
ARC
  5
7B
330
1F
100
AcDbEntity
  8
0
  6
Continuous
 62
     7
370
    15
100
AcDbCircle
 10
766.4147497329
 20
409.8206390067
 30
0.0
 40
28.72269387664623
100
AcDbArc
 50
25.0
 51
95.0
  0
ARC
  5
7C
330
1F
100
AcDbEntity
  8
0
  6
Continuous
 62
     7
370
    15
100
AcDbCircle
 10
764.1946581783
 20
435.1964015927
 30
0.0
 40
3.24999999999999
100
AcDbArc
 50
95.0
 51
275.0
  0
ARC
  5
7D
330
1F
100
AcDbEntity
  8
0
  6
Continuous
 62
     7
370
    15
100
AcDbCircle
 10
766.4147497329
 20
409.8206390067
 30
0.0
 40
22.22269387664631
100
AcDbArc
 50
25.0
 51
95.0
  0
ARC
  5
7E
330
1F
100
AcDbEntity
  8
0
  6
Continuous
 62
     7
370
    15
100
AcDbCircle
 10
789.5008505501
 20
420.5858646147
 30
0.0
 40
3.250000000000004
100
AcDbArc
 50
205.0
 51
25.0
  0
ARC
  5
7F
330
1F
100
AcDbEntity
  8
0
  6
Continuous
 62
     7
370
    15
100
AcDbCircle
 10
766.4147497329
 20
409.8206390067
 30
0.0
 40
28.7226938766463
100
AcDbArc
 50
265.0
 51
335.0
  0
ARC
  5
80
330
1F
100
AcDbEntity
  8
0
  6
Continuous
 62
     7
370
    15
100
AcDbCircle
 10
789.5008505501
 20
399.0554133987
 30
0.0
 40
3.249999999999925
100
AcDbArc
 50
335.0
 51
155.0
  0
ARC
  5
81
330
1F
100
AcDbEntity
  8
0
  6
Continuous
 62
     7
370
    15
100
AcDbCircle
 10
766.4147497329
 20
409.8206390067
 30
0.0
 40
22.22269387664635
100
AcDbArc
 50
265.0
 51
335.0
  0
ARC
  5
82
330
1F
100
AcDbEntity
  8
0
  6
Continuous
 62
     7
370
    15
100
AcDbCircle
 10
764.1946581783
 20
384.4448764206
 30
0.0
 40
3.250000000000047
100
AcDbArc
 50
85.0
 51
265.0
  0
ARC
  5
83
330
1F
100
AcDbEntity
  8
0
  6
Continuous
 62
     7
370
    15
100
AcDbCircle
 10
766.4147497329
 20
409.8206390067
 30
0.0
 40
28.72269387664635
100
AcDbArc
 50
145.0
 51
215.0
  0
ARC
  5
84
330
1F
100
AcDbEntity
  8
0
  6
Continuous
 62
     7
370
    15
100
AcDbCircle
 10
745.5487404703
 20
395.2101020287
 30
0.0
 40
3.250000000000088
100
AcDbArc
 50
215.0
 51
35.0
  0
ARC
  5
85
330
1F
100
AcDbEntity
  8
0
  6
Continuous
 62
     7
370
    15
100
AcDbCircle
 10
766.4147497329
 20
409.8206390067
 30
0.0
 40
22.22269387664635
100
AcDbArc
 50
145.0
 51
215.0
  0
ARC
  5
86
330
1F
100
AcDbEntity
  8
0
  6
Continuous
 62
     7
370
    15
100
AcDbCircle
 10
745.5487404703
 20
424.4311759847
 30
0.0
 40
3.250000000000028
100
AcDbArc
 50
325.0
 51
145.0
  0
CIRCLE
  5
87
330
1F
100
AcDbEntity
  8
0
  6
Continuous
 62
     7
370
    15
100
AcDbCircle
 10
597.6273663277
 20
409.8206390067
 30
0.0
 40
12.10000000000002
  0
LINE
  5
88
330
1F
100
AcDbEntity
  8
0
  6
Continuous
 62
     7
370
    15
100
AcDbLine
 10
620.1273663277
 20
470.8206390067
 30
0.0
 11
620.1273663277
 21
497.9951818181
 31
0.0
  0
ARC
  5
89
330
1F
100
AcDbEntity
  8
0
  6
Continuous
 62
     7
370
    15
100
AcDbCircle
 10
597.6273663277
 20
409.8206390067
 30
0.0
 40
91.0
100
AcDbArc
 50
104.3150032683
 51
75.6849967317
  0
LINE
  5
8A
330
1F
100
AcDbEntity
  8
0
  6
Continuous
 62
     7
370
    15
100
AcDbLine
 10
575.1273663277
 20
497.9951818181
 30
0.0
 11
575.1273663277
 21
470.8206390067
 31
0.0
  0
ARC
  5
8B
330
1F
100
AcDbEntity
  8
0
  6
Continuous
 62
     7
370
    15
100
AcDbCircle
 10
597.6273663277
 20
470.8206390067
 30
0.0
 40
22.5
100
AcDbArc
 50
180.0
 51
0.0
  0
CIRCLE
  5
8C
330
1F
100
AcDbEntity
  8
0
  6
Continuous
 62
     7
370
    15
100
AcDbCircle
 10
629.1253119051
 20
410.1803950334
 30
0.0
 40
3.999999999999886
  0
CIRCLE
  5
8D
330
1F
100
AcDbEntity
  8
0
  6
Continuous
 62
     7
370
    15
100
AcDbCircle
 10
566.1294207502
 20
409.46088298
 30
0.0
 40
4.000000000000114
  0
CIRCLE
  5
8E
330
1F
100
AcDbEntity
  8
0
  6
Continuous
 62
     7
370
    15
100
AcDbCircle
 10
645.3616200042
 20
344.3802766456
 30
0.0
 40
3.0
  0
CIRCLE
  5
8F
330
1F
100
AcDbEntity
  8
0
  6
Continuous
 62
     7
370
    15
100
AcDbCircle
 10
641.2916278932
 20
482.1096718236
 30
0.0
 40
3.0
  0
CIRCLE
  5
90
330
1F
100
AcDbEntity
  8
0
  6
Continuous
 62
     7
370
    15
100
AcDbCircle
 10
553.0138652023
 20
477.4271144165
 30
0.0
 40
3.0
  0
CIRCLE
  5
91
330
1F
100
AcDbEntity
  8
0
  6
Continuous
 62
     7
370
    15
100
AcDbCircle
 10
516.6627094211
 20
407.4280813798
 30
0.0
 40
3.0
  0
CIRCLE
  5
92
330
1F
100
AcDbEntity
  8
0
  6
Continuous
 62
     7
370
    15
100
AcDbCircle
 10
557.0838573134
 20
339.6977192386
 30
0.0
 40
3.0
  0
CIRCLE
  5
93
330
1F
100
AcDbEntity
  8
0
  6
Continuous
 62
     7
370
    15
100
AcDbCircle
 10
655.7273663277
 20
409.8206390067
 30
0.0
 40
3.0
  0
CIRCLE
  5
94
330
1F
100
AcDbEntity
  8
0
  6
Continuous
 62
     7
370
    15
100
AcDbCircle
 10
171.464229998
 20
754.4508718795
 30
0.0
 40
25.09999999999999
  0
CIRCLE
  5
95
330
1F
100
AcDbEntity
  8
0
  6
Continuous
 62
     7
370
    15
100
AcDbCircle
 10
264.714229998
 20
664.4390208528
 30
0.0
 40
2.000000000000037
  0
CIRCLE
  5
96
330
1F
100
AcDbEntity
  8
0
  6
Continuous
 62
     7
370
    15
100
AcDbCircle
 10
264.714229998
 20
722.4627229063
 30
0.0
 40
1.999999999999967
  0
CIRCLE
  5
97
330
1F
100
AcDbEntity
  8
0
  6
Continuous
 62
     7
370
    15
100
AcDbCircle
 10
314.964229998
 20
693.4508718795
 30
0.0
 40
2.0
  0
CIRCLE
  5
98
330
1F
100
AcDbEntity
  8
0
  6
Continuous
 62
     7
370
    15
100
AcDbCircle
 10
281.464229998
 20
693.4508718795
 30
0.0
 40
13.0
  0
CIRCLE
  5
99
330
1F
100
AcDbEntity
  8
0
  6
Continuous
 62
     7
370
    15
100
AcDbCircle
 10
171.464229998
 20
693.4508718795
 30
0.0
 40
12.09999999999999
  0
ARC
  5
9A
330
1F
100
AcDbEntity
  8
0
  6
Continuous
 62
     7
370
    15
100
AcDbCircle
 10
246.5649544405
 20
776.0206615267
 30
0.0
 40
2.999999999999974
100
AcDbArc
 50
164.3558589601
 51
254.3558589601
  0
LINE
  5
9B
330
1F
100
AcDbEntity
  8
0
  6
Continuous
 62
     7
370
    15
100
AcDbLine
 10
288.9660284544
 20
761.0314387603
 30
0.0
 11
245.7559691383
 21
773.1317962164
 31
0.0
  0
ARC
  5
9C
330
1F
100
AcDbEntity
  8
0
  6
Continuous
 62
     7
370
    15
100
AcDbCircle
 10
289.7750137566
 20
763.9203040705
 30
0.0
 40
3.000000000000084
100
AcDbArc
 50
254.3558589601
 51
344.3558589601
  0
LINE
  5
9D
330
1F
100
AcDbEntity
  8
0
  6
Continuous
 62
     7
370
    15
100
AcDbLine
 10
295.3604967411
 20
772.7408698024
 30
0.0
 11
292.6638790669
 21
763.1113187682
 31
0.0
  0
ARC
  5
9E
330
1F
100
AcDbEntity
  8
0
  6
Continuous
 62
     7
370
    15
100
AcDbCircle
 10
298.2493620513
 20
771.9318845001
 30
0.0
 40
3.000000000000084
100
AcDbArc
 50
74.3558589601
 51
164.3558589601
  0
LINE
  5
9F
330
1F
100
AcDbEntity
  8
0
  6
Continuous
 62
     7
370
    15
100
AcDbLine
 10
303.8731228707
 20
773.4724409733
 30
0.0
 11
299.0583473536
 21
774.8207498104
 31
0.0
  0
ARC
  5
A0
330
1F
100
AcDbEntity
  8
0
  6
Continuous
 62
     7
370
    15
100
AcDbCircle
 10
281.464229998
 20
693.4508718795
 30
0.0
 40
83.10000000000005
100
AcDbArc
 50
285.6441410399
 51
74.3558589601
  0
LINE
  5
A1
330
1F
100
AcDbEntity
  8
0
  6
Continuous
 62
     7
370
    15
100
AcDbLine
 10
201.8720444396
 20
584.8653635211
 30
0.0
 11
303.8731228707
 21
613.4293027858
 31
0.0
  0
ARC
  5
A2
330
1F
100
AcDbEntity
  8
0
  6
Continuous
 62
     7
370
    15
100
AcDbCircle
 10
171.464229998
 20
693.4508718795
 30
0.0
 40
112.7627944162883
100
AcDbArc
 50
74.3558589601
 51
285.6441410399
  0
LINE
  5
A3
330
1F
100
AcDbEntity
  8
0
  6
Continuous
 62
     7
370
    15
100
AcDbLine
 10
244.2928267965
 20
790.1570484756
 30
0.0
 11
201.8720444396
 21
802.036380238
 31
0.0
  0
ARC
  5
A4
330
1F
100
AcDbEntity
  8
0
  6
Continuous
 62
     7
370
    15
100
AcDbCircle
 10
243.4838414942
 20
787.2681831653
 30
0.0
 40
3.000000000000002
100
AcDbArc
 50
344.3558589601
 51
74.3558589601
  0
LINE
  5
A5
330
1F
100
AcDbEntity
  8
0
  6
Continuous
 62
     7
370
    15
100
AcDbLine
 10
243.6760891303
 20
776.8296468289
 30
0.0
 11
246.3727068045
 21
786.4591978631
 31
0.0
  0
CIRCLE
  5
A6
330
1F
100
AcDbEntity
  8
0
  6
Continuous
 62
     7
370
    15
100
AcDbCircle
 10
171.464229998
 20
796.2136662958
 30
0.0
 40
3.050000000000011
  0
CIRCLE
  5
A7
330
1F
100
AcDbEntity
  8
0
  6
Continuous
 62
     7
370
    15
100
AcDbCircle
 10
82.4701438213
 20
744.8341818334
 30
0.0
 40
3.049999999999997
  0
CIRCLE
  5
A8
330
1F
100
AcDbEntity
  8
0
  6
Continuous
 62
     7
370
    15
100
AcDbCircle
 10
82.4701438213
 20
642.0675619257
 30
0.0
 40
3.049999999999997
  0
CIRCLE
  5
A9
330
1F
100
AcDbEntity
  8
0
  6
Continuous
 62
     7
370
    15
100
AcDbCircle
 10
171.464229998
 20
590.6880774633
 30
0.0
 40
3.050000000000011
  0
CIRCLE
  5
AA
330
1F
100
AcDbEntity
  8
0
  6
Continuous
 62
     7
370
    15
100
AcDbCircle
 10
301.1765051965
 20
623.05885382
 30
0.0
 40
3.050000000000011
  0
CIRCLE
  5
AB
330
1F
100
AcDbEntity
  8
0
  6
Continuous
 62
     7
370
    15
100
AcDbCircle
 10
354.564229998
 20
693.4508718795
 30
0.0
 40
3.050000000000011
  0
CIRCLE
  5
AC
330
1F
100
AcDbEntity
  8
0
  6
Continuous
 62
     7
370
    15
100
AcDbCircle
 10
301.1765051965
 20
763.8428899391
 30
0.0
 40
3.050000000000011
  0
CIRCLE
  5
AD
330
1F
100
AcDbEntity
  8
0
  6
Continuous
 62
     7
370
    15
100
AcDbCircle
 10
339.707587203
 20
737.6246349239
 30
0.0
 40
3.049999999999955
  0
CIRCLE
  5
AE
330
1F
100
AcDbEntity
  8
0
  6
Continuous
 62
     7
370
    15
100
AcDbCircle
 10
236.7814336052
 20
781.8758062785
 30
0.0
 40
3.050000000000011
  0
CIRCLE
  5
AF
330
1F
100
AcDbEntity
  8
0
  6
Continuous
 62
     7
370
    15
100
AcDbCircle
 10
120.0837891716
 20
782.4466145683
 30
0.0
 40
3.050000000000011
  0
CIRCLE
  5
B0
330
1F
100
AcDbEntity
  8
0
  6
Continuous
 62
     7
370
    15
100
AcDbCircle
 10
68.7014355817
 20
693.4508718795
 30
0.0
 40
3.049999999999997
  0
CIRCLE
  5
B1
330
1F
100
AcDbEntity
  8
0
  6
Continuous
 62
     7
370
    15
100
AcDbCircle
 10
120.0837891716
 20
604.4551291907
 30
0.0
 40
3.049999999999997
  0
CIRCLE
  5
B2
330
1F
100
AcDbEntity
  8
0
  6
Continuous
 62
     7
370
    15
100
AcDbCircle
 10
236.7814336052
 20
605.0259374805
 30
0.0
 40
3.050000000000011
  0
CIRCLE
  5
B3
330
1F
100
AcDbEntity
  8
0
  6
Continuous
 62
     7
370
    15
100
AcDbCircle
 10
339.707587203
 20
649.2771088352
 30
0.0
 40
3.049999999999955
  0
CIRCLE
  5
B4
330
1F
100
AcDbEntity
  8
0
  6
Continuous
 62
     7
370
    15
100
AcDbCircle
 10
171.464229998
 20
632.4508718795
 30
0.0
 40
17.50000000000003
  0
ARC
  5
B5
330
1F
100
AcDbEntity
  8
0
  6
Continuous
 62
     7
370
    15
100
AcDbCircle
 10
302.964229998
 20
693.4508718795
 30
0.0
 40
2.5
100
AcDbArc
 50
270.0
 51
90.0
  0
LINE
  5
B6
330
1F
100
AcDbEntity
  8
0
  6
Continuous
 62
     7
370
    15
100
AcDbLine
 10
299.964229998
 20
695.9508718795
 30
0.0
 11
302.964229998
 21
695.9508718795
 31
0.0
  0
ARC
  5
B7
330
1F
100
AcDbEntity
  8
0
  6
Continuous
 62
     7
370
    15
100
AcDbCircle
 10
299.964229998
 20
693.4508718795
 30
0.0
 40
2.5
100
AcDbArc
 50
90.0
 51
270.0
  0
LINE
  5
B8
330
1F
100
AcDbEntity
  8
0
  6
Continuous
 62
     7
370
    15
100
AcDbLine
 10
302.964229998
 20
690.9508718795
 30
0.0
 11
299.964229998
 21
690.9508718795
 31
0.0
  0
ARC
  5
B9
330
1F
100
AcDbEntity
  8
0
  6
Continuous
 62
     7
370
    15
100
AcDbCircle
 10
259.964229998
 20
693.4508718795
 30
0.0
 40
2.5
100
AcDbArc
 50
90.0
 51
270.0
  0
LINE
  5
BA
330
1F
100
AcDbEntity
  8
0
  6
Continuous
 62
     7
370
    15
100
AcDbLine
 10
262.964229998
 20
690.9508718795
 30
0.0
 11
259.964229998
 21
690.9508718795
 31
0.0
  0
ARC
  5
BB
330
1F
100
AcDbEntity
  8
0
  6
Continuous
 62
     7
370
    15
100
AcDbCircle
 10
262.964229998
 20
693.4508718795
 30
0.0
 40
2.5
100
AcDbArc
 50
270.0
 51
90.0
  0
LINE
  5
BC
330
1F
100
AcDbEntity
  8
0
  6
Continuous
 62
     7
370
    15
100
AcDbLine
 10
259.964229998
 20
695.9508718795
 30
0.0
 11
262.964229998
 21
695.9508718795
 31
0.0
  0
CIRCLE
  5
BD
330
1F
100
AcDbEntity
  8
0
  6
Continuous
 62
     7
370
    15
100
AcDbCircle
 10
219.1984836745
 20
628.0105095185
 30
0.0
 40
3.0
  0
CIRCLE
  5
BE
330
1F
100
AcDbEntity
  8
0
  6
Continuous
 62
     7
370
    15
100
AcDbCircle
 10
215.1284915635
 20
765.7399046964
 30
0.0
 40
3.0
  0
CIRCLE
  5
BF
330
1F
100
AcDbEntity
  8
0
  6
Continuous
 62
     7
370
    15
100
AcDbCircle
 10
126.8507288727
 20
761.0573472894
 30
0.0
 40
3.0
  0
CIRCLE
  5
C0
330
1F
100
AcDbEntity
  8
0
  6
Continuous
 62
     7
370
    15
100
AcDbCircle
 10
90.4995730914
 20
691.0583142527
 30
0.0
 40
3.0
  0
CIRCLE
  5
C1
330
1F
100
AcDbEntity
  8
0
  6
Continuous
 62
     7
370
    15
100
AcDbCircle
 10
130.9207209837
 20
623.3279521114
 30
0.0
 40
3.0
  0
CIRCLE
  5
C2
330
1F
100
AcDbEntity
  8
0
  6
Continuous
 62
     7
370
    15
100
AcDbCircle
 10
229.564229998
 20
693.4508718795
 30
0.0
 40
3.0
  0
CIRCLE
  5
C3
330
1F
100
AcDbEntity
  8
0
  6
Continuous
 62
     7
370
    15
100
AcDbCircle
 10
294.9323209071
 20
642.0872609544
 30
0.0
 40
3.0
  0
CIRCLE
  5
C4
330
1F
100
AcDbEntity
  8
0
  6
Continuous
 62
     7
370
    15
100
AcDbCircle
 10
334.564229998
 20
693.4508718795
 30
0.0
 40
3.0
  0
CIRCLE
  5
C5
330
1F
100
AcDbEntity
  8
0
  6
Continuous
 62
     7
370
    15
100
AcDbCircle
 10
294.9323209071
 20
744.8144828046
 30
0.0
 40
3.0
  0
CIRCLE
  5
C6
330
1F
100
AcDbEntity
  8
0
  6
Continuous
 62
     7
370
    15
100
AcDbCircle
 10
141.7855472082
 20
791.8346495266
 30
0.0
 40
3.0
  0
CIRCLE
  5
C7
330
1F
100
AcDbEntity
  8
0
  6
Continuous
 62
     7
370
    15
100
AcDbCircle
 10
92.4791243937
 20
759.1893310106
 30
0.0
 40
3.000000000000014
  0
CIRCLE
  5
C8
330
1F
100
AcDbEntity
  8
0
  6
Continuous
 62
     7
370
    15
100
AcDbCircle
 10
139.9662844205
 20
693.0911158528
 30
0.0
 40
4.000000000000171
  0
CIRCLE
  5
C9
330
1F
100
AcDbEntity
  8
0
  6
Continuous
 62
     7
370
    15
100
AcDbCircle
 10
202.9621755755
 20
693.8106279062
 30
0.0
 40
3.999999999999886
  0
CIRCLE
  5
CA
330
1F
100
AcDbEntity
  8
0
  6
Continuous
 62
     7
370
    15
100
AcDbCircle
 10
628.7034114501
 20
168.1878901064
 30
0.0
 40
7.600000000000136
  0
CIRCLE
  5
CB
330
1F
100
AcDbEntity
  8
0
  6
Continuous
 62
     7
370
    15
100
AcDbCircle
 10
681.530961081
 20
76.6878901064
 30
0.0
 40
7.600000000000364
  0
CIRCLE
  5
CC
330
1F
100
AcDbEntity
  8
0
  6
Continuous
 62
     7
370
    15
100
AcDbCircle
 10
734.3585107118
 20
168.1878901064
 30
0.0
 40
7.600000000000705
  0
CIRCLE
  5
CD
330
1F
100
AcDbEntity
  8
0
  6
Continuous
 62
     7
370
    15
100
AcDbCircle
 10
656.8492370731
 20
123.4378901064
 30
0.0
 40
2.0
  0
CIRCLE
  5
CE
330
1F
100
AcDbEntity
  8
0
  6
Continuous
 62
     7
370
    15
100
AcDbCircle
 10
706.2126850888
 20
123.4378901064
 30
0.0
 40
2.0
  0
CIRCLE
  5
CF
330
1F
100
AcDbEntity
  8
0
  6
Continuous
 62
     7
370
    15
100
AcDbCircle
 10
681.530961081
 20
166.1878901064
 30
0.0
 40
1.999999999999886
  0
CIRCLE
  5
D0
330
1F
100
AcDbEntity
  8
0
  6
Continuous
 62
     7
370
    15
100
AcDbCircle
 10
681.530961081
 20
198.6878901064
 30
0.0
 40
7.599999999999909
  0
ARC
  5
D1
330
1F
100
AcDbEntity
  8
0
  6
Continuous
 62
     7
370
    15
100
AcDbCircle
 10
710.205961081
 20
187.3544470134
 30
0.0
 40
11.24999999999998
100
AcDbArc
 50
150.0
 51
330.0
  0
ARC
  5
D2
330
1F
100
AcDbEntity
  8
0
  6
Continuous
 62
     7
370
    15
100
AcDbCircle
 10
724.4546774424
 20
187.1631826646
 30
0.0
 40
3.000000000000029
100
AcDbArc
 50
216.7260735477
 51
83.2739264523
  0
LINE
  5
D3
330
1F
100
AcDbEntity
  8
0
  6
Continuous
 62
     7
370
    15
100
AcDbLine
 10
725.386381996
 20
191.1477073186
 30
0.0
 11
724.8060455017
 21
190.1425350249
 31
0.0
  0
ARC
  5
D4
330
1F
100
AcDbEntity
  8
0
  6
Continuous
 62
     7
370
    15
100
AcDbCircle
 10
727.1184328036
 20
190.1477073186
 30
0.0
 40
1.999999999999953
100
AcDbArc
 50
49.0094270882
 51
150.0
  0
ARC
  5
D5
330
1F
100
AcDbEntity
  8
0
  6
Continuous
 62
     7
370
    15
100
AcDbCircle
 10
681.530961081
 20
137.6878901064
 30
0.0
 40
71.50000000000003
100
AcDbArc
 50
10.9905729118
 51
49.0094270882
  0
ARC
  5
D6
330
1F
100
AcDbEntity
  8
0
  6
Continuous
 62
     7
370
    15
100
AcDbCircle
 10
749.7562313259
 20
150.9378901064
 30
0.0
 40
2.0
100
AcDbArc
 50
270.0
 51
10.9905729118
  0
LINE
  5
D7
330
1F
100
AcDbEntity
  8
0
  6
Continuous
 62
     7
370
    15
100
AcDbLine
 10
748.5955583373
 20
148.9378901064
 30
0.0
 11
749.7562313259
 21
148.9378901064
 31
0.0
  0
ARC
  5
D8
330
1F
100
AcDbEntity
  8
0
  6
Continuous
 62
     7
370
    15
100
AcDbCircle
 10
745.8396794768
 20
150.1232726211
 30
0.0
 40
2.999999999999984
100
AcDbArc
 50
336.7260735477
 51
203.2739264523
  0
LINE
  5
D9
330
1F
100
AcDbEntity
  8
0
  6
Continuous
 62
     7
370
    15
100
AcDbLine
 10
738.880961081
 20
148.9378901064
 30
0.0
 11
743.0838006163
 21
148.9378901064
 31
0.0
  0
ARC
  5
DA
330
1F
100
AcDbEntity
  8
0
  6
Continuous
 62
     7
370
    15
100
AcDbCircle
 10
738.880961081
 20
137.6878901064
 30
0.0
 40
11.25000000000001
100
AcDbArc
 50
90.0
 51
270.0
  0
LINE
  5
DB
330
1F
100
AcDbEntity
  8
0
  6
Continuous
 62
     7
370
    15
100
AcDbLine
 10
743.0838006163
 20
126.4378901064
 30
0.0
 11
738.880961081
 21
126.4378901064
 31
0.0
  0
ARC
  5
DC
330
1F
100
AcDbEntity
  8
0
  6
Continuous
 62
     7
370
    15
100
AcDbCircle
 10
745.8396794768
 20
125.2525075917
 30
0.0
 40
3.000000000000083
100
AcDbArc
 50
156.7260735477
 51
23.2739264523
  0
LINE
  5
DD
330
1F
100
AcDbEntity
  8
0
  6
Continuous
 62
     7
370
    15
100
AcDbLine
 10
749.7562313259
 20
126.4378901064
 30
0.0
 11
748.5955583373
 21
126.4378901064
 31
0.0
  0
ARC
  5
DE
330
1F
100
AcDbEntity
  8
0
  6
Continuous
 62
     7
370
    15
100
AcDbCircle
 10
749.7562313259
 20
124.4378901064
 30
0.0
 40
2.000000000000014
100
AcDbArc
 50
349.0094270882
 51
90.0
  0
ARC
  5
DF
330
1F
100
AcDbEntity
  8
0
  6
Continuous
 62
     7
370
    15
100
AcDbCircle
 10
681.530961081
 20
137.6878901064
 30
0.0
 40
71.50000000000007
100
AcDbArc
 50
310.9905729118
 51
349.0094270882
  0
ARC
  5
E0
330
1F
100
AcDbEntity
  8
0
  6
Continuous
 62
     7
370
    15
100
AcDbCircle
 10
727.1184328036
 20
85.2280728942
 30
0.0
 40
2.000000000000066
100
AcDbArc
 50
210.0
 51
310.9905729118
  0
LINE
  5
E1
330
1F
100
AcDbEntity
  8
0
  6
Continuous
 62
     7
370
    15
100
AcDbLine
 10
724.8060455017
 20
85.2332451879
 30
0.0
 11
725.386381996
 21
84.2280728942
 31
0.0
  0
ARC
  5
E2
330
1F
100
AcDbEntity
  8
0
  6
Continuous
 62
     7
370
    15
100
AcDbCircle
 10
724.4546774424
 20
88.2125975482
 30
0.0
 40
3.000000000000008
100
AcDbArc
 50
276.7260735477
 51
143.2739264523
  0
LINE
  5
E3
330
1F
100
AcDbEntity
  8
0
  6
Continuous
 62
     7
370
    15
100
AcDbLine
 10
719.9487468735
 20
93.6463331994
 30
0.0
 11
722.0501666412
 21
90.0065673937
 31
0.0
  0
ARC
  5
E4
330
1F
100
AcDbEntity
  8
0
  6
Continuous
 62
     7
370
    15
100
AcDbCircle
 10
710.205961081
 20
88.0213331994
 30
0.0
 40
11.25000000000004
100
AcDbArc
 50
30.0
 51
210.0
  0
LINE
  5
E5
330
1F
100
AcDbEntity
  8
0
  6
Continuous
 62
     7
370
    15
100
AcDbLine
 10
702.564595056
 20
78.7565673937
 30
0.0
 11
700.4631752884
 21
82.3963331994
 31
0.0
  0
ARC
  5
E6
330
1F
100
AcDbEntity
  8
0
  6
Continuous
 62
     7
370
    15
100
AcDbCircle
 10
702.9159631153
 20
75.7772150334
 30
0.0
 40
3.000000000000078
100
AcDbArc
 50
96.7260735477
 51
323.2739264523
  0
LINE
  5
E7
330
1F
100
AcDbEntity
  8
0
  6
Continuous
 62
     7
370
    15
100
AcDbLine
 10
705.9008104109
 20
72.9780728942
 30
0.0
 11
705.3204739165
 21
73.9832451879
 31
0.0
  0
ARC
  5
E8
330
1F
100
AcDbEntity
  8
0
  6
Continuous
 62
     7
370
    15
100
AcDbCircle
 10
704.1687596033
 20
71.9780728942
 30
0.0
 40
1.999999999999996
100
AcDbArc
 50
289.0094270882
 51
30.0
  0
ARC
  5
E9
330
1F
100
AcDbEntity
  8
0
  6
Continuous
 62
     7
370
    15
100
AcDbCircle
 10
681.530961081
 20
137.6878901064
 30
0.0
 40
71.50000000000001
100
AcDbArc
 50
250.9905729118
 51
289.0094270882
  0
ARC
  5
EA
330
1F
100
AcDbEntity
  8
0
  6
Continuous
 62
     7
370
    15
100
AcDbCircle
 10
658.8931625586
 20
71.9780728942
 30
0.0
 40
2.000000000000059
100
AcDbArc
 50
150.0
 51
250.9905729118
  0
LINE
  5
EB
330
1F
100
AcDbEntity
  8
0
  6
Continuous
 62
     7
370
    15
100
AcDbLine
 10
657.7414482454
 20
73.9832451879
 30
0.0
 11
657.161111751
 21
72.9780728942
 31
0.0
  0
ARC
  5
EC
330
1F
100
AcDbEntity
  8
0
  6
Continuous
 62
     7
370
    15
100
AcDbCircle
 10
660.1459590466
 20
75.7772150334
 30
0.0
 40
3.000000000000008
100
AcDbArc
 50
216.7260735477
 51
83.2739264523
  0
LINE
  5
ED
330
1F
100
AcDbEntity
  8
0
  6
Continuous
 62
     7
370
    15
100
AcDbLine
 10
662.5987468735
 20
82.3963331994
 30
0.0
 11
660.4973271059
 21
78.7565673937
 31
0.0
  0
ARC
  5
EE
330
1F
100
AcDbEntity
  8
0
  6
Continuous
 62
     7
370
    15
100
AcDbCircle
 10
652.855961081
 20
88.0213331994
 30
0.0
 40
11.25000000000001
100
AcDbArc
 50
330.0
 51
150.0
  0
LINE
  5
EF
330
1F
100
AcDbEntity
  8
0
  6
Continuous
 62
     7
370
    15
100
AcDbLine
 10
641.0117555207
 20
90.0065673937
 30
0.0
 11
643.1131752884
 21
93.6463331994
 31
0.0
  0
ARC
  5
F0
330
1F
100
AcDbEntity
  8
0
  6
Continuous
 62
     7
370
    15
100
AcDbCircle
 10
638.6072447195
 20
88.2125975482
 30
0.0
 40
3.000000000000008
100
AcDbArc
 50
36.7260735477
 51
263.2739264523
  0
ARC
  5
F1
330
1F
100
AcDbEntity
  8
0
  6
Continuous
 62
     7
370
    15
100
AcDbCircle
 10
635.9434893583
 20
85.2280728942
 30
0.0
 40
2.000000000000025
100
AcDbArc
 50
229.0094270882
 51
330.0
  0
ARC
  5
F2
330
1F
100
AcDbEntity
  8
0
  6
Continuous
 62
     7
370
    15
100
AcDbCircle
 10
681.530961081
 20
137.6878901064
 30
0.0
 40
71.5
100
AcDbArc
 50
190.9905729118
 51
229.0094270882
  0
ARC
  5
F3
330
1F
100
AcDbEntity
  8
0
  6
Continuous
 62
     7
370
    15
100
AcDbCircle
 10
613.305690836
 20
124.4378901064
 30
0.0
 40
2.0
100
AcDbArc
 50
90.0
 51
190.9905729118
  0
LINE
  5
F4
330
1F
100
AcDbEntity
  8
0
  6
Continuous
 62
     7
370
    15
100
AcDbLine
 10
614.4663638246
 20
126.4378901064
 30
0.0
 11
613.305690836
 21
126.4378901064
 31
0.0
  0
ARC
  5
F5
330
1F
100
AcDbEntity
  8
0
  6
Continuous
 62
     7
370
    15
100
AcDbCircle
 10
617.2222426851
 20
125.2525075917
 30
0.0
 40
2.999999999999978
100
AcDbArc
 50
156.7260735477
 51
23.2739264523
  0
LINE
  5
F6
330
1F
100
AcDbEntity
  8
0
  6
Continuous
 62
     7
370
    15
100
AcDbLine
 10
624.180961081
 20
126.4378901064
 30
0.0
 11
619.9781215456
 21
126.4378901064
 31
0.0
  0
ARC
  5
F7
330
1F
100
AcDbEntity
  8
0
  6
Continuous
 62
     7
370
    15
100
AcDbCircle
 10
624.180961081
 20
137.6878901064
 30
0.0
 40
11.25
100
AcDbArc
 50
270.0
 51
90.0
  0
LINE
  5
F8
330
1F
100
AcDbEntity
  8
0
  6
Continuous
 62
     7
370
    15
100
AcDbLine
 10
619.9781215456
 20
148.9378901064
 30
0.0
 11
624.180961081
 21
148.9378901064
 31
0.0
  0
ARC
  5
F9
330
1F
100
AcDbEntity
  8
0
  6
Continuous
 62
     7
370
    15
100
AcDbCircle
 10
617.2222426851
 20
150.1232726211
 30
0.0
 40
2.999999999999984
100
AcDbArc
 50
336.7260735477
 51
203.2739264523
  0
LINE
  5
FA
330
1F
100
AcDbEntity
  8
0
  6
Continuous
 62
     7
370
    15
100
AcDbLine
 10
613.305690836
 20
148.9378901064
 30
0.0
 11
614.4663638246
 21
148.9378901064
 31
0.0
  0
ARC
  5
FB
330
1F
100
AcDbEntity
  8
0
  6
Continuous
 62
     7
370
    15
100
AcDbCircle
 10
613.305690836
 20
150.9378901064
 30
0.0
 40
2.0
100
AcDbArc
 50
169.0094270882
 51
270.0
  0
ARC
  5
FC
330
1F
100
AcDbEntity
  8
0
  6
Continuous
 62
     7
370
    15
100
AcDbCircle
 10
681.530961081
 20
137.6878901064
 30
0.0
 40
71.49999999999997
100
AcDbArc
 50
130.9905729118
 51
169.0094270882
  0
ARC
  5
FD
330
1F
100
AcDbEntity
  8
0
  6
Continuous
 62
     7
370
    15
100
AcDbCircle
 10
635.9434893583
 20
190.1477073186
 30
0.0
 40
2.000000000000004
100
AcDbArc
 50
30.0
 51
130.9905729118
  0
LINE
  5
FE
330
1F
100
AcDbEntity
  8
0
  6
Continuous
 62
     7
370
    15
100
AcDbLine
 10
638.2558766602
 20
190.1425350249
 30
0.0
 11
637.6755401659
 21
191.1477073186
 31
0.0
  0
ARC
  5
FF
330
1F
100
AcDbEntity
  8
0
  6
Continuous
 62
     7
370
    15
100
AcDbCircle
 10
638.6072447195
 20
187.1631826646
 30
0.0
 40
3.000000000000008
100
AcDbArc
 50
96.7260735477
 51
323.2739264523
  0
LINE
  5
100
330
1F
100
AcDbEntity
  8
0
  6
Continuous
 62
     7
370
    15
100
AcDbLine
 10
643.1131752884
 20
181.7294470134
 30
0.0
 11
641.0117555207
 21
185.369212819
 31
0.0
  0
ARC
  5
101
330
1F
100
AcDbEntity
  8
0
  6
Continuous
 62
     7
370
    15
100
AcDbCircle
 10
652.855961081
 20
187.3544470134
 30
0.0
 40
11.25000000000004
100
AcDbArc
 50
210.0
 51
30.0
  0
LINE
  5
102
330
1F
100
AcDbEntity
  8
0
  6
Continuous
 62
     7
370
    15
100
AcDbLine
 10
660.4973271059
 20
196.619212819
 30
0.0
 11
662.5987468735
 21
192.9794470134
 31
0.0
  0
ARC
  5
103
330
1F
100
AcDbEntity
  8
0
  6
Continuous
 62
     7
370
    15
100
AcDbCircle
 10
660.1459590466
 20
199.5985651794
 30
0.0
 40
3.000000000000008
100
AcDbArc
 50
276.7260735477
 51
143.2739264523
  0
LINE
  5
104
330
1F
100
AcDbEntity
  8
0
  6
Continuous
 62
     7
370
    15
100
AcDbLine
 10
657.161111751
 20
202.3977073186
 30
0.0
 11
657.7414482454
 21
201.3925350249
 31
0.0
  0
ARC
  5
105
330
1F
100
AcDbEntity
  8
0
  6
Continuous
 62
     7
370
    15
100
AcDbCircle
 10
658.8931625586
 20
203.3977073186
 30
0.0
 40
2.00000000000002
100
AcDbArc
 50
109.0094270882
 51
210.0
  0
ARC
  5
106
330
1F
100
AcDbEntity
  8
0
  6
Continuous
 62
     7
370
    15
100
AcDbCircle
 10
681.530961081
 20
137.6878901064
 30
0.0
 40
71.50000000000003
100
AcDbArc
 50
70.9905729118
 51
109.0094270882
  0
ARC
  5
107
330
1F
100
AcDbEntity
  8
0
  6
Continuous
 62
     7
370
    15
100
AcDbCircle
 10
704.1687596033
 20
203.3977073186
 30
0.0
 40
2.00000000000001
100
AcDbArc
 50
330.0
 51
70.9905729118
  0
ARC
  5
108
330
1F
100
AcDbEntity
  8
0
  6
Continuous
 62
     7
370
    15
100
AcDbCircle
 10
702.9159631153
 20
199.5985651794
 30
0.0
 40
3.000000000000012
100
AcDbArc
 50
36.7260735477
 51
263.2739264523
  0
LINE
  5
109
330
1F
100
AcDbEntity
  8
0
  6
Continuous
 62
     7
370
    15
100
AcDbLine
 10
700.4631752884
 20
192.9794470134
 30
0.0
 11
702.564595056
 21
196.619212819
 31
0.0
  0
CIRCLE
  5
10A
330
1F
100
AcDbEntity
  8
0
  6
Continuous
 62
     7
370
    15
100
AcDbCircle
 10
681.530961081
 20
137.6878901064
 30
0.0
 40
10.10000000000002
  0
CIRCLE
  5
10B
330
1F
100
AcDbEntity
  8
0
  6
Continuous
 62
     7
370
    15
100
AcDbCircle
 10
706.2126850888
 20
151.9378901064
 30
0.0
 40
2.0
  0
CIRCLE
  5
10C
330
1F
100
AcDbEntity
  8
0
  6
Continuous
 62
     7
370
    15
100
AcDbCircle
 10
681.530961081
 20
109.1878901064
 30
0.0
 40
1.999999999999886
  0
CIRCLE
  5
10D
330
1F
100
AcDbEntity
  8
0
  6
Continuous
 62
     7
370
    15
100
AcDbCircle
 10
656.8492370731
 20
151.9378901064
 30
0.0
 40
2.0
  0
CIRCLE
  5
10E
330
1F
100
AcDbEntity
  8
0
  6
Continuous
 62
     7
370
    15
100
AcDbCircle
 10
734.3585107118
 20
107.1878901064
 30
0.0
 40
7.600000000000591
  0
CIRCLE
  5
10F
330
1F
100
AcDbEntity
  8
0
  6
Continuous
 62
     7
370
    15
100
AcDbCircle
 10
628.7034114501
 20
107.1878901064
 30
0.0
 40
7.60000000000025
  0
LINE
  5
110
330
1F
100
AcDbEntity
  8
0
  6
Continuous
 62
     7
370
    15
100
AcDbLine
 10
637.6755401659
 20
84.2280728942
 30
0.0
 11
638.2558766602
 21
85.2332451879
 31
0.0
  0
LINE
  5
111
330
1F
100
AcDbEntity
  8
0
  6
Continuous
 62
     7
370
    15
100
AcDbLine
 10
722.0501666412
 20
185.369212819
 30
0.0
 11
719.9487468735
 21
181.7294470134
 31
0.0
  0
LINE
  5
112
330
1F
100
AcDbEntity
  8
0
  6
Continuous
 62
     7
370
    15
100
AcDbLine
 10
705.3204739165
 20
201.3925350249
 30
0.0
 11
705.9008104109
 21
202.3977073186
 31
0.0
  0
CIRCLE
  5
113
330
1F
100
AcDbEntity
  8
0
  6
Continuous
 62
     7
370
    15
100
AcDbCircle
 10
696.580961081
 20
137.6878901064
 30
0.0
 40
2.0
  0
CIRCLE
  5
114
330
1F
100
AcDbEntity
  8
0
  6
Continuous
 62
     7
370
    15
100
AcDbCircle
 10
666.480961081
 20
137.6878901064
 30
0.0
 40
2.0
  0
CIRCLE
  5
115
330
1F
100
AcDbEntity
  8
0
  6
Continuous
 62
     7
370
    15
100
AcDbCircle
 10
1104.5287427525
 20
451.4858085487
 30
0.0
 40
2.099999999999909
  0
CIRCLE
  5
116
330
1F
100
AcDbEntity
  8
0
  6
Continuous
 62
     7
370
    15
100
AcDbCircle
 10
1139.8250599628
 20
399.8695861958
 30
0.0
 40
2.999999999999773
  0
CIRCLE
  5
117
330
1F
100
AcDbEntity
  8
0
  6
Continuous
 62
     7
370
    15
100
AcDbCircle
 10
1089.5037427525
 20
451.4858085487
 30
0.0
 40
10.05000000000018
  0
LINE
  5
118
330
1F
100
AcDbEntity
  8
0
  6
Continuous
 62
     7
370
    15
100
AcDbLine
 10
1146.4030250713
 20
404.4226483556
 30
0.0
 11
1105.9486555239
 21
462.8684639482
 31
0.0
  0
ARC
  5
119
330
1F
100
AcDbEntity
  8
0
  6
Continuous
 62
     7
370
    15
100
AcDbCircle
 10
1139.8250599628
 20
399.8695861958
 30
0.0
 40
8.000000000000036
100
AcDbArc
 50
303.5081678415
 51
34.6897732831
  0
LINE
  5
11A
330
1F
100
AcDbEntity
  8
0
  6
Continuous
 62
     7
370
    15
100
AcDbLine
 10
1094.9350839875
 20
360.5538106253
 30
0.0
 11
1144.241506802
 21
393.1991291413
 31
0.0
  0
ARC
  5
11B
330
1F
100
AcDbEntity
  8
0
  6
Continuous
 62
     7
370
    15
100
AcDbCircle
 10
1090.5186371482
 20
367.2242676798
 30
0.0
 40
7.999999999999989
100
AcDbArc
 50
188.877014348
 51
303.5081678415
  0
LINE
  5
11C
330
1F
100
AcDbEntity
  8
0
  6
Continuous
 62
     7
370
    15
100
AcDbLine
 10
1069.7433057075
 20
448.3995279736
 30
0.0
 11
1082.6144623302
 21
365.9897554498
 31
0.0
  0
ARC
  5
11D
330
1F
100
AcDbEntity
  8
0
  6
Continuous
 62
     7
370
    15
100
AcDbCircle
 10
1089.5037427525
 20
451.4858085487
 30
0.0
 40
20.00000000000006
100
AcDbArc
 50
34.6897732831
 51
188.877014348
  0
CIRCLE
  5
11E
330
1F
100
AcDbEntity
  8
0
  6
Continuous
 62
     7
370
    15
100
AcDbCircle
 10
1090.5186371482
 20
367.2242676798
 30
0.0
 40
3.0
  0
CIRCLE
  5
11F
330
1F
100
AcDbEntity
  8
0
  6
Continuous
 62
     7
370
    15
100
AcDbCircle
 10
1074.4787427525
 20
451.4858085487
 30
0.0
 40
2.099999999999909
  0
CIRCLE
  5
120
330
1F
100
AcDbEntity
  8
0
  6
Continuous
 62
     7
370
    15
100
AcDbCircle
 10
561.0373084205
 20
168.1878901064
 30
0.0
 40
4.250000000000036
  0
CIRCLE
  5
121
330
1F
100
AcDbEntity
  8
0
  6
Continuous
 62
     7
370
    15
100
AcDbCircle
 10
561.0373084205
 20
107.1878901064
 30
0.0
 40
4.250000000000017
  0
CIRCLE
  5
122
330
1F
100
AcDbEntity
  8
0
  6
Continuous
 62
     7
370
    15
100
AcDbCircle
 10
508.2097587897
 20
76.6878901064
 30
0.0
 40
4.249999999999943
  0
CIRCLE
  5
123
330
1F
100
AcDbEntity
  8
0
  6
Continuous
 62
     7
370
    15
100
AcDbCircle
 10
455.3822091588
 20
107.1878901064
 30
0.0
 40
4.249999999999992
  0
CIRCLE
  5
124
330
1F
100
AcDbEntity
  8
0
  6
Continuous
 62
     7
370
    15
100
AcDbCircle
 10
455.3822091588
 20
168.1878901064
 30
0.0
 40
4.249999999999976
  0
CIRCLE
  5
125
330
1F
100
AcDbEntity
  8
0
  6
Continuous
 62
     7
370
    15
100
AcDbCircle
 10
508.2097587897
 20
198.6878901064
 30
0.0
 40
4.249999999999943
  0
CIRCLE
  5
126
330
1F
100
AcDbEntity
  8
0
  6
Continuous
 62
     7
370
    15
100
AcDbCircle
 10
523.2597587897
 20
137.6878901064
 30
0.0
 40
2.0
  0
CIRCLE
  5
127
330
1F
100
AcDbEntity
  8
0
  6
Continuous
 62
     7
370
    15
100
AcDbCircle
 10
508.2097587897
 20
109.1878901064
 30
0.0
 40
2.0
  0
CIRCLE
  5
128
330
1F
100
AcDbEntity
  8
0
  6
Continuous
 62
     7
370
    15
100
AcDbCircle
 10
532.8914827975
 20
151.9378901064
 30
0.0
 40
2.0
  0
CIRCLE
  5
129
330
1F
100
AcDbEntity
  8
0
  6
Continuous
 62
     7
370
    15
100
AcDbCircle
 10
508.2097587897
 20
137.6878901064
 30
0.0
 40
10.09999999999997
  0
CIRCLE
  5
12A
330
1F
100
AcDbEntity
  8
0
  6
Continuous
 62
     7
370
    15
100
AcDbCircle
 10
508.2097587897
 20
137.6878901064
 30
0.0
 40
71.5
  0
CIRCLE
  5
12B
330
1F
100
AcDbEntity
  8
0
  6
Continuous
 62
     7
370
    15
100
AcDbCircle
 10
508.2097587897
 20
166.1878901064
 30
0.0
 40
2.0
  0
CIRCLE
  5
12C
330
1F
100
AcDbEntity
  8
0
  6
Continuous
 62
     7
370
    15
100
AcDbCircle
 10
532.8914827975
 20
123.4378901064
 30
0.0
 40
2.0
  0
CIRCLE
  5
12D
330
1F
100
AcDbEntity
  8
0
  6
Continuous
 62
     7
370
    15
100
AcDbCircle
 10
483.5280347818
 20
123.4378901064
 30
0.0
 40
2.000000000000057
  0
CIRCLE
  5
12E
330
1F
100
AcDbEntity
  8
0
  6
Continuous
 62
     7
370
    15
100
AcDbCircle
 10
493.1597587897
 20
137.6878901064
 30
0.0
 40
2.0
  0
CIRCLE
  5
12F
330
1F
100
AcDbEntity
  8
0
  6
Continuous
 62
     7
370
    15
100
AcDbCircle
 10
483.5280347818
 20
151.9378901064
 30
0.0
 40
2.0
  0
CIRCLE
  5
130
330
1F
100
AcDbEntity
  8
0
  6
Continuous
 62
     7
370
    15
100
AcDbCircle
 10
848.3091944401
 20
408.4079104124
 30
0.0
 40
3.5
  0
CIRCLE
  5
131
330
1F
100
AcDbEntity
  8
0
  6
Continuous
 62
     7
370
    15
100
AcDbCircle
 10
863.3591944401
 20
408.4079104124
 30
0.0
 40
10.10000000000002
  0
CIRCLE
  5
132
330
1F
100
AcDbEntity
  8
0
  6
Continuous
 62
     7
370
    15
100
AcDbCircle
 10
863.3591944401
 20
408.4079104124
 30
0.0
 40
20.0
  0
CIRCLE
  5
133
330
1F
100
AcDbEntity
  8
0
  6
Continuous
 62
     7
370
    15
100
AcDbCircle
 10
878.4091944401
 20
408.4079104124
 30
0.0
 40
3.499999999999886
  0
CIRCLE
  5
134
330
1F
100
AcDbEntity
  8
0
  6
Continuous
 62
     7
370
    15
100
AcDbCircle
 10
924.6290787936
 20
408.4079104124
 30
0.0
 40
5.049999999999955
  0
CIRCLE
  5
135
330
1F
100
AcDbEntity
  8
0
  6
Continuous
 62
     7
370
    15
100
AcDbCircle
 10
924.6290787936
 20
408.4079104124
 30
0.0
 40
14.23720558371167
  0
CIRCLE
  5
136
330
1F
100
AcDbEntity
  8
0
  6
Continuous
 62
     7
370
    15
100
AcDbCircle
 10
284.9770151444
 20
168.1878901064
 30
0.0
 40
7.600000000000136
  0
CIRCLE
  5
137
330
1F
100
AcDbEntity
  8
0
  6
Continuous
 62
     7
370
    15
100
AcDbCircle
 10
337.8045647752
 20
76.6878901064
 30
0.0
 40
7.600000000000364
  0
CIRCLE
  5
138
330
1F
100
AcDbEntity
  8
0
  6
Continuous
 62
     7
370
    15
100
AcDbCircle
 10
390.6321144061
 20
168.1878901064
 30
0.0
 40
7.600000000000705
  0
CIRCLE
  5
139
330
1F
100
AcDbEntity
  8
0
  6
Continuous
 62
     7
370
    15
100
AcDbCircle
 10
322.7545647752
 20
137.6878901064
 30
0.0
 40
2.0
  0
CIRCLE
  5
13A
330
1F
100
AcDbEntity
  8
0
  6
Continuous
 62
     7
370
    15
100
AcDbCircle
 10
362.4862887831
 20
123.4378901064
 30
0.0
 40
2.000000000000057
  0
CIRCLE
  5
13B
330
1F
100
AcDbEntity
  8
0
  6
Continuous
 62
     7
370
    15
100
AcDbCircle
 10
337.8045647752
 20
166.1878901064
 30
0.0
 40
2.0
  0
CIRCLE
  5
13C
330
1F
100
AcDbEntity
  8
0
  6
Continuous
 62
     7
370
    15
100
AcDbCircle
 10
337.8045647752
 20
198.6878901064
 30
0.0
 40
7.600000000000023
  0
CIRCLE
  5
13D
330
1F
100
AcDbEntity
  8
0
  6
Continuous
 62
     7
370
    15
100
AcDbCircle
 10
337.8045647752
 20
137.6878901064
 30
0.0
 40
71.5
  0
CIRCLE
  5
13E
330
1F
100
AcDbEntity
  8
0
  6
Continuous
 62
     7
370
    15
100
AcDbCircle
 10
337.8045647752
 20
137.6878901064
 30
0.0
 40
10.10000000000002
  0
CIRCLE
  5
13F
330
1F
100
AcDbEntity
  8
0
  6
Continuous
 62
     7
370
    15
100
AcDbCircle
 10
362.4862887831
 20
151.9378901064
 30
0.0
 40
2.0
  0
CIRCLE
  5
140
330
1F
100
AcDbEntity
  8
0
  6
Continuous
 62
     7
370
    15
100
AcDbCircle
 10
337.8045647752
 20
109.1878901064
 30
0.0
 40
2.0
  0
CIRCLE
  5
141
330
1F
100
AcDbEntity
  8
0
  6
Continuous
 62
     7
370
    15
100
AcDbCircle
 10
313.1228407674
 20
151.9378901064
 30
0.0
 40
2.0
  0
CIRCLE
  5
142
330
1F
100
AcDbEntity
  8
0
  6
Continuous
 62
     7
370
    15
100
AcDbCircle
 10
352.8545647752
 20
137.6878901064
 30
0.0
 40
2.0
  0
CIRCLE
  5
143
330
1F
100
AcDbEntity
  8
0
  6
Continuous
 62
     7
370
    15
100
AcDbCircle
 10
390.6321144061
 20
107.1878901064
 30
0.0
 40
7.600000000000534
  0
CIRCLE
  5
144
330
1F
100
AcDbEntity
  8
0
  6
Continuous
 62
     7
370
    15
100
AcDbCircle
 10
284.9770151444
 20
107.1878901064
 30
0.0
 40
7.60000000000025
  0
CIRCLE
  5
145
330
1F
100
AcDbEntity
  8
0
  6
Continuous
 62
     7
370
    15
100
AcDbCircle
 10
313.1228407674
 20
123.4378901064
 30
0.0
 40
2.0
  0
INSERT
  5
150
330
1F
100
AcDbEntity
  8
TEXT
100
AcDbBlockReference
  2
SW_NOTE_1
 10
260.8536585366
 20
558.6656829268
 30
0.0
  0
LEADER
  5
152
330
1F
100
AcDbEntity
  8
TEXT
100
AcDbLeader
  3
SLDDIMSTYLE0
 76
     2
 10
240.6233894804
 20
595.7171219848
 30
0.0
 10
260.8536585366
 20
558.6656829268
 30
0.0
  0
INSERT
  5
15D
330
1F
100
AcDbEntity
  8
TEXT
100
AcDbBlockReference
  2
SW_NOTE_2
 10
716.7073170732
 20
551.8364146341
 30
0.0
  0
LEADER
  5
15E
330
1F
100
AcDbEntity
  8
TEXT
100
AcDbLeader
  3
SLDDIMSTYLE0
 76
     2
 10
691.3687644391
 20
602.0750664496
 30
0.0
 10
716.7073170732
 20
551.8364146341
 30
0.0
  0
INSERT
  5
169
330
1F
100
AcDbEntity
  8
TEXT
100
AcDbBlockReference
  2
SW_NOTE_3
 10
1068.4146341463
 20
551.8364146341
 30
0.0
  0
LEADER
  5
16A
330
1F
100
AcDbEntity
  8
TEXT
100
AcDbLeader
  3
SLDDIMSTYLE0
 76
     2
 10
1045.1277145353
 20
617.7997349216
 30
0.0
 10
1068.4146341463
 20
551.8364146341
 30
0.0
  0
INSERT
  5
175
330
1F
100
AcDbEntity
  8
TEXT
100
AcDbBlockReference
  2
SW_NOTE_4
 10
225.8536585366
 20
265.860804878
 30
0.0
  0
LEADER
  5
176
330
1F
100
AcDbEntity
  8
TEXT
100
AcDbLeader
  3
SLDDIMSTYLE0
 76
     2
 10
202.7286006038
 20
323.0384463286
 30
0.0
 10
225.8536585366
 20
265.860804878
 30
0.0
  0
INSERT
  5
181
330
1F
100
AcDbEntity
  8
TEXT
100
AcDbBlockReference
  2
SW_NOTE_5
 10
463.9024390244
 20
265.860804878
 30
0.0
  0
LEADER
  5
182
330
1F
100
AcDbEntity
  8
TEXT
100
AcDbLeader
  3
SLDDIMSTYLE0
 76
     2
 10
436.0900718491
 20
334.1751354143
 30
0.0
 10
463.9024390244
 20
265.860804878
 30
0.0
  0
INSERT
  5
18D
330
1F
100
AcDbEntity
  8
TEXT
100
AcDbBlockReference
  2
SW_NOTE_6
 10
684.6341463415
 20
275.9827560976
 30
0.0
  0
LEADER
  5
18E
330
1F
100
AcDbEntity
  8
TEXT
100
AcDbLeader
  3
SLDDIMSTYLE0
 76
     2
 10
655.7094387933
 20
339.7672817845
 30
0.0
 10
684.6341463415
 20
275.9827560976
 30
0.0
  0
INSERT
  5
199
330
1F
100
AcDbEntity
  8
TEXT
100
AcDbBlockReference
  2
SW_NOTE_7
 10
831.2195121951
 20
274.7632439024
 30
0.0
  0
LEADER
  5
19A
330
1F
100
AcDbEntity
  8
TEXT
100
AcDbLeader
  3
SLDDIMSTYLE0
 76
     2
 10
795.8344706815
 20
369.3919360927
 30
0.0
 10
831.2195121951
 20
274.7632439024
 30
0.0
  0
INSERT
  5
1A5
330
1F
100
AcDbEntity
  8
TEXT
100
AcDbBlockReference
  2
SW_NOTE_8
 10
913.9024390244
 20
275.9827560976
 30
0.0
  0
LEADER
  5
1A6
330
1F
100
AcDbEntity
  8
TEXT
100
AcDbLeader
  3
SLDDIMSTYLE0
 76
     2
 10
871.8242450503
 20
390.2876753651
 30
0.0
 10
913.9024390244
 20
275.9827560976
 30
0.0
  0
INSERT
  5
1B1
330
1F
100
AcDbEntity
  8
TEXT
100
AcDbBlockReference
  2
SW_NOTE_9
 10
976.5853658537
 20
275.9827560976
 30
0.0
  0
LEADER
  5
1B2
330
1F
100
AcDbEntity
  8
TEXT
100
AcDbLeader
  3
SLDDIMSTYLE0
 76
     2
 10
932.0405408122
 20
396.2519138025
 30
0.0
 10
976.5853658537
 20
275.9827560976
 30
0.0
  0
INSERT
  5
1BD
330
1F
100
AcDbEntity
  8
TEXT
100
AcDbBlockReference
  2
SW_NOTE_10
 10
1049.1463414634
 20
275.9827560976
 30
0.0
  0
LEADER
  5
1BE
330
1F
100
AcDbEntity
  8
TEXT
100
AcDbLeader
  3
SLDDIMSTYLE0
 76
     2
 10
1011.3929652385
 20
373.7105073809
 30
0.0
 10
1049.1463414634
 20
275.9827560976
 30
0.0
  0
INSERT
  5
1C9
330
1F
100
AcDbEntity
  8
TEXT
100
AcDbBlockReference
  2
SW_NOTE_11
 10
1159.0243902439
 20
275.9827560976
 30
0.0
  0
LEADER
  5
1CA
330
1F
100
AcDbEntity
  8
TEXT
100
AcDbLeader
  3
SLDDIMSTYLE0
 76
     2
 10
1120.8250212916
 20
377.6952944606
 30
0.0
 10
1159.0243902439
 20
275.9827560976
 30
0.0
  0
INSERT
  5
1D5
330
1F
100
AcDbEntity
  8
TEXT
100
AcDbBlockReference
  2
SW_NOTE_12
 10
190.243902439
 20
231.9583658537
 30
0.0
  0
LEADER
  5
1D6
330
1F
100
AcDbEntity
  8
TEXT
100
AcDbLeader
  3
SLDDIMSTYLE0
 76
     2
 10
174.8675967222
 20
208.3807878132
 30
0.0
 10
190.243902439
 20
231.9583658537
 30
0.0
  0
INSERT
  5
1E1
330
1F
100
AcDbEntity
  8
TEXT
100
AcDbBlockReference
  2
SW_NOTE_13
 10
374.0243902439
 20
231.9583658537
 30
0.0
  0
LEADER
  5
1E2
330
1F
100
AcDbEntity
  8
TEXT
100
AcDbLeader
  3
SLDDIMSTYLE0
 76
     2
 10
361.5488418335
 20
205.1301565791
 30
0.0
 10
374.0243902439
 20
231.9583658537
 30
0.0
  0
INSERT
  5
1ED
330
1F
100
AcDbEntity
  8
TEXT
100
AcDbBlockReference
  2
SW_NOTE_14
 10
566.9512195122
 20
231.9583658537
 30
0.0
  0
LEADER
  5
1EE
330
1F
100
AcDbEntity
  8
TEXT
100
AcDbLeader
  3
SLDDIMSTYLE0
 76
     2
 10
548.0960699884
 20
197.028703877
 30
0.0
 10
566.9512195122
 20
231.9583658537
 30
0.0
  0
INSERT
  5
1F9
330
1F
100
AcDbEntity
  8
TEXT
100
AcDbBlockReference
  2
SW_NOTE_15
 10
736.8292682927
 20
231.9583658537
 30
0.0
  0
LEADER
  5
1FA
330
1F
100
AcDbEntity
  8
TEXT
100
AcDbLeader
  3
SLDDIMSTYLE0
 76
     2
 10
713.2095079986
 20
176.5128047986
 30
0.0
 10
736.8292682927
 20
231.9583658537
 30
0.0
  0
INSERT
  5
205
330
1F
100
AcDbEntity
  8
TEXT
100
AcDbBlockReference
  2
SW_NOTE_16
 10
905.8536585366
 20
231.9583658537
 30
0.0
  0
LEADER
  5
206
330
1F
100
AcDbEntity
  8
TEXT
100
AcDbLeader
  3
SLDDIMSTYLE0
 76
     2
 10
875.3778371867
 20
177.1665845432
 30
0.0
 10
905.8536585366
 20
231.9583658537
 30
0.0
  0
CIRCLE
  5
207
330
1F
100
AcDbEntity
  8
0
  6
Continuous
 62
     7
370
    15
100
AcDbCircle
 10
186.2658317308
 20
408.4079104124
 30
0.0
 40
2.0
  0
CIRCLE
  5
208
330
1F
100
AcDbEntity
  8
0
  6
Continuous
 62
     7
370
    15
100
AcDbCircle
 10
171.2158317308
 20
408.4079104124
 30
0.0
 40
90.99999999999997
  0
CIRCLE
  5
209
330
1F
100
AcDbEntity
  8
0
  6
Continuous
 62
     7
370
    15
100
AcDbCircle
 10
156.1658317308
 20
408.4079104124
 30
0.0
 40
2.0
  0
CIRCLE
  5
20A
330
1F
100
AcDbEntity
  8
0
  6
Continuous
 62
     7
370
    15
100
AcDbCircle
 10
171.2158317308
 20
436.9079104124
 30
0.0
 40
2.5
  0
CIRCLE
  5
20B
330
1F
100
AcDbEntity
  8
0
  6
Continuous
 62
     7
370
    15
100
AcDbCircle
 10
146.534107723
 20
422.6579104124
 30
0.0
 40
2.499999999999945
  0
CIRCLE
  5
20C
330
1F
100
AcDbEntity
  8
0
  6
Continuous
 62
     7
370
    15
100
AcDbCircle
 10
146.534107723
 20
394.1579104124
 30
0.0
 40
2.500000000000022
  0
CIRCLE
  5
20D
330
1F
100
AcDbEntity
  8
0
  6
Continuous
 62
     7
370
    15
100
AcDbCircle
 10
171.2158317308
 20
379.9079104124
 30
0.0
 40
2.5
  0
CIRCLE
  5
20E
330
1F
100
AcDbEntity
  8
0
  6
Continuous
 62
     7
370
    15
100
AcDbCircle
 10
195.8975557387
 20
394.1579104124
 30
0.0
 40
2.499999999999994
  0
CIRCLE
  5
20F
330
1F
100
AcDbEntity
  8
0
  6
Continuous
 62
     7
370
    15
100
AcDbCircle
 10
195.8975557387
 20
422.6579104124
 30
0.0
 40
2.499999999999973
  0
CIRCLE
  5
210
330
1F
100
AcDbEntity
  8
0
  6
Continuous
 62
     7
370
    15
100
AcDbCircle
 10
171.2158317308
 20
494.4079104124
 30
0.0
 40
2.5
  0
CIRCLE
  5
211
330
1F
100
AcDbEntity
  8
0
  6
Continuous
 62
     7
370
    15
100
AcDbCircle
 10
128.2158317308
 20
482.8860951378
 30
0.0
 40
2.499999999999986
  0
CIRCLE
  5
212
330
1F
100
AcDbEntity
  8
0
  6
Continuous
 62
     7
370
    15
100
AcDbCircle
 10
96.7376470054
 20
451.4079104124
 30
0.0
 40
2.5
  0
CIRCLE
  5
213
330
1F
100
AcDbEntity
  8
0
  6
Continuous
 62
     7
370
    15
100
AcDbCircle
 10
85.2158317308
 20
408.4079104124
 30
0.0
 40
2.5
  0
CIRCLE
  5
214
330
1F
100
AcDbEntity
  8
0
  6
Continuous
 62
     7
370
    15
100
AcDbCircle
 10
96.7376470054
 20
365.4079104124
 30
0.0
 40
2.5
  0
CIRCLE
  5
215
330
1F
100
AcDbEntity
  8
0
  6
Continuous
 62
     7
370
    15
100
AcDbCircle
 10
128.2158317308
 20
333.9297256869
 30
0.0
 40
2.500000000000014
  0
CIRCLE
  5
216
330
1F
100
AcDbEntity
  8
0
  6
Continuous
 62
     7
370
    15
100
AcDbCircle
 10
171.2158317308
 20
322.4079104124
 30
0.0
 40
2.5
  0
CIRCLE
  5
217
330
1F
100
AcDbEntity
  8
0
  6
Continuous
 62
     7
370
    15
100
AcDbCircle
 10
214.2158317308
 20
333.9297256869
 30
0.0
 40
2.5
  0
CIRCLE
  5
218
330
1F
100
AcDbEntity
  8
0
  6
Continuous
 62
     7
370
    15
100
AcDbCircle
 10
245.6940164563
 20
365.4079104124
 30
0.0
 40
2.5
  0
CIRCLE
  5
219
330
1F
100
AcDbEntity
  8
0
  6
Continuous
 62
     7
370
    15
100
AcDbCircle
 10
257.2158317308
 20
408.4079104124
 30
0.0
 40
2.500000000000028
  0
CIRCLE
  5
21A
330
1F
100
AcDbEntity
  8
0
  6
Continuous
 62
     7
370
    15
100
AcDbCircle
 10
245.6940164563
 20
451.4079104124
 30
0.0
 40
2.5
  0
CIRCLE
  5
21B
330
1F
100
AcDbEntity
  8
0
  6
Continuous
 62
     7
370
    15
100
AcDbCircle
 10
214.2158317308
 20
482.8860951378
 30
0.0
 40
2.5
  0
CIRCLE
  5
21C
330
1F
100
AcDbEntity
  8
0
  6
Continuous
 62
     7
370
    15
100
AcDbCircle
 10
171.2158317308
 20
469.4079104124
 30
0.0
 40
11.09999999999999
  0
CIRCLE
  5
21D
330
1F
100
AcDbEntity
  8
0
  6
Continuous
 62
     7
370
    15
100
AcDbCircle
 10
118.3882821
 20
438.9079104124
 30
0.0
 40
11.09999999999996
  0
CIRCLE
  5
21E
330
1F
100
AcDbEntity
  8
0
  6
Continuous
 62
     7
370
    15
100
AcDbCircle
 10
118.3882821
 20
377.9079104124
 30
0.0
 40
11.09999999999996
  0
CIRCLE
  5
21F
330
1F
100
AcDbEntity
  8
0
  6
Continuous
 62
     7
370
    15
100
AcDbCircle
 10
171.2158317308
 20
347.4079104124
 30
0.0
 40
11.09999999999999
  0
CIRCLE
  5
220
330
1F
100
AcDbEntity
  8
0
  6
Continuous
 62
     7
370
    15
100
AcDbCircle
 10
224.0433813617
 20
377.9079104124
 30
0.0
 40
11.09999999999993
  0
CIRCLE
  5
221
330
1F
100
AcDbEntity
  8
0
  6
Continuous
 62
     7
370
    15
100
AcDbCircle
 10
224.0433813617
 20
438.9079104124
 30
0.0
 40
11.09999999999995
  0
CIRCLE
  5
222
330
1F
100
AcDbEntity
  8
0
  6
Continuous
 62
     7
370
    15
100
AcDbCircle
 10
171.2158317308
 20
408.4079104124
 30
0.0
 40
10.09999999999999
  0
CIRCLE
  5
223
330
1F
100
AcDbEntity
  8
0
  6
Continuous
 62
     7
370
    15
100
AcDbCircle
 10
111.3272410249
 20
168.1878901064
 30
0.0
 40
7.600000000000151
  0
CIRCLE
  5
224
330
1F
100
AcDbEntity
  8
0
  6
Continuous
 62
     7
370
    15
100
AcDbCircle
 10
164.1547906558
 20
76.6878901064
 30
0.0
 40
7.600000000000421
  0
CIRCLE
  5
225
330
1F
100
AcDbEntity
  8
0
  6
Continuous
 62
     7
370
    15
100
AcDbCircle
 10
216.9823402866
 20
168.1878901064
 30
0.0
 40
7.600000000000762
  0
CIRCLE
  5
226
330
1F
100
AcDbEntity
  8
0
  6
Continuous
 62
     7
370
    15
100
AcDbCircle
 10
149.1047906558
 20
137.6878901064
 30
0.0
 40
2.0
  0
CIRCLE
  5
227
330
1F
100
AcDbEntity
  8
0
  6
Continuous
 62
     7
370
    15
100
AcDbCircle
 10
188.8365146636
 20
123.4378901064
 30
0.0
 40
2.0
  0
CIRCLE
  5
228
330
1F
100
AcDbEntity
  8
0
  6
Continuous
 62
     7
370
    15
100
AcDbCircle
 10
164.1547906558
 20
166.1878901064
 30
0.0
 40
2.0
  0
CIRCLE
  5
229
330
1F
100
AcDbEntity
  8
0
  6
Continuous
 62
     7
370
    15
100
AcDbCircle
 10
164.1547906558
 20
198.6878901064
 30
0.0
 40
7.599999999999994
  0
CIRCLE
  5
22A
330
1F
100
AcDbEntity
  8
0
  6
Continuous
 62
     7
370
    15
100
AcDbCircle
 10
164.1547906558
 20
137.6878901064
 30
0.0
 40
71.50000000000001
  0
CIRCLE
  5
22B
330
1F
100
AcDbEntity
  8
0
  6
Continuous
 62
     7
370
    15
100
AcDbCircle
 10
164.1547906558
 20
137.6878901064
 30
0.0
 40
10.09999999999999
  0
CIRCLE
  5
22C
330
1F
100
AcDbEntity
  8
0
  6
Continuous
 62
     7
370
    15
100
AcDbCircle
 10
188.8365146636
 20
151.9378901064
 30
0.0
 40
2.0
  0
CIRCLE
  5
22D
330
1F
100
AcDbEntity
  8
0
  6
Continuous
 62
     7
370
    15
100
AcDbCircle
 10
164.1547906558
 20
109.1878901064
 30
0.0
 40
2.0
  0
CIRCLE
  5
22E
330
1F
100
AcDbEntity
  8
0
  6
Continuous
 62
     7
370
    15
100
AcDbCircle
 10
139.4730666479
 20
151.9378901064
 30
0.0
 40
2.0
  0
CIRCLE
  5
22F
330
1F
100
AcDbEntity
  8
0
  6
Continuous
 62
     7
370
    15
100
AcDbCircle
 10
179.2047906558
 20
137.6878901064
 30
0.0
 40
2.0
  0
CIRCLE
  5
230
330
1F
100
AcDbEntity
  8
0
  6
Continuous
 62
     7
370
    15
100
AcDbCircle
 10
216.9823402866
 20
107.1878901064
 30
0.0
 40
7.600000000000563
  0
CIRCLE
  5
231
330
1F
100
AcDbEntity
  8
0
  6
Continuous
 62
     7
370
    15
100
AcDbCircle
 10
111.3272410249
 20
107.1878901064
 30
0.0
 40
7.600000000000293
  0
CIRCLE
  5
232
330
1F
100
AcDbEntity
  8
0
  6
Continuous
 62
     7
370
    15
100
AcDbCircle
 10
139.4730666479
 20
123.4378901064
 30
0.0
 40
2.0
  0
CIRCLE
  5
233
330
1F
100
AcDbEntity
  8
0
  6
Continuous
 62
     7
370
    15
100
AcDbCircle
 10
599.5055519195
 20
754.4508718795
 30
0.0
 40
25.09999999999991
  0
CIRCLE
  5
234
330
1F
100
AcDbEntity
  8
0
  6
Continuous
 62
     7
370
    15
100
AcDbCircle
 10
692.7555519195
 20
664.4390208528
 30
0.0
 40
2.000000000000066
  0
CIRCLE
  5
235
330
1F
100
AcDbEntity
  8
0
  6
Continuous
 62
     7
370
    15
100
AcDbCircle
 10
692.7555519195
 20
722.4627229063
 30
0.0
 40
1.999999999999967
  0
CIRCLE
  5
236
330
1F
100
AcDbEntity
  8
0
  6
Continuous
 62
     7
370
    15
100
AcDbCircle
 10
743.0055519195
 20
693.4508718795
 30
0.0
 40
2.0
  0
CIRCLE
  5
237
330
1F
100
AcDbEntity
  8
0
  6
Continuous
 62
     7
370
    15
100
AcDbCircle
 10
709.5055519195
 20
693.4508718795
 30
0.0
 40
13.0
  0
CIRCLE
  5
238
330
1F
100
AcDbEntity
  8
0
  6
Continuous
 62
     7
370
    15
100
AcDbCircle
 10
599.5055519195
 20
693.4508718795
 30
0.0
 40
12.09999999999991
  0
LINE
  5
239
330
1F
100
AcDbEntity
  8
0
  6
Continuous
 62
     7
370
    15
100
AcDbLine
 10
731.9144447922
 20
773.4724409733
 30
0.0
 11
629.9133663611
 21
802.036380238
 31
0.0
  0
ARC
  5
23A
330
1F
100
AcDbEntity
  8
0
  6
Continuous
 62
     7
370
    15
100
AcDbCircle
 10
709.5055519195
 20
693.4508718795
 30
0.0
 40
83.10000000000005
100
AcDbArc
 50
285.6441410399
 51
74.3558589601
  0
LINE
  5
23B
330
1F
100
AcDbEntity
  8
0
  6
Continuous
 62
     7
370
    15
100
AcDbLine
 10
629.9133663611
 20
584.8653635211
 30
0.0
 11
731.9144447922
 21
613.4293027858
 31
0.0
  0
ARC
  5
23C
330
1F
100
AcDbEntity
  8
0
  6
Continuous
 62
     7
370
    15
100
AcDbCircle
 10
599.5055519195
 20
693.4508718795
 30
0.0
 40
112.7627944162883
100
AcDbArc
 50
74.3558589601
 51
285.6441410399
  0
CIRCLE
  5
23D
330
1F
100
AcDbEntity
  8
0
  6
Continuous
 62
     7
370
    15
100
AcDbCircle
 10
599.5055519195
 20
796.2136662958
 30
0.0
 40
3.049999999999955
  0
CIRCLE
  5
23E
330
1F
100
AcDbEntity
  8
0
  6
Continuous
 62
     7
370
    15
100
AcDbCircle
 10
510.5114657428
 20
744.8341818334
 30
0.0
 40
3.049999999999955
  0
CIRCLE
  5
23F
330
1F
100
AcDbEntity
  8
0
  6
Continuous
 62
     7
370
    15
100
AcDbCircle
 10
510.5114657428
 20
642.0675619257
 30
0.0
 40
3.049999999999955
  0
CIRCLE
  5
240
330
1F
100
AcDbEntity
  8
0
  6
Continuous
 62
     7
370
    15
100
AcDbCircle
 10
599.5055519195
 20
590.6880774633
 30
0.0
 40
3.049999999999955
  0
CIRCLE
  5
241
330
1F
100
AcDbEntity
  8
0
  6
Continuous
 62
     7
370
    15
100
AcDbCircle
 10
729.217827118
 20
623.05885382
 30
0.0
 40
3.050000000000068
  0
CIRCLE
  5
242
330
1F
100
AcDbEntity
  8
0
  6
Continuous
 62
     7
370
    15
100
AcDbCircle
 10
782.6055519195
 20
693.4508718795
 30
0.0
 40
3.050000000000068
  0
CIRCLE
  5
243
330
1F
100
AcDbEntity
  8
0
  6
Continuous
 62
     7
370
    15
100
AcDbCircle
 10
729.217827118
 20
763.8428899391
 30
0.0
 40
3.050000000000068
  0
CIRCLE
  5
244
330
1F
100
AcDbEntity
  8
0
  6
Continuous
 62
     7
370
    15
100
AcDbCircle
 10
767.7489091245
 20
737.6246349239
 30
0.0
 40
3.049999999999955
  0
CIRCLE
  5
245
330
1F
100
AcDbEntity
  8
0
  6
Continuous
 62
     7
370
    15
100
AcDbCircle
 10
664.8227555267
 20
781.8758062785
 30
0.0
 40
3.049999999999955
  0
CIRCLE
  5
246
330
1F
100
AcDbEntity
  8
0
  6
Continuous
 62
     7
370
    15
100
AcDbCircle
 10
548.1251110931
 20
782.4466145683
 30
0.0
 40
3.049999999999955
  0
CIRCLE
  5
247
330
1F
100
AcDbEntity
  8
0
  6
Continuous
 62
     7
370
    15
100
AcDbCircle
 10
496.7427575032
 20
693.4508718795
 30
0.0
 40
3.050000000000011
  0
CIRCLE
  5
248
330
1F
100
AcDbEntity
  8
0
  6
Continuous
 62
     7
370
    15
100
AcDbCircle
 10
548.1251110931
 20
604.4551291907
 30
0.0
 40
3.049999999999955
  0
CIRCLE
  5
249
330
1F
100
AcDbEntity
  8
0
  6
Continuous
 62
     7
370
    15
100
AcDbCircle
 10
664.8227555267
 20
605.0259374805
 30
0.0
 40
3.049999999999955
  0
CIRCLE
  5
24A
330
1F
100
AcDbEntity
  8
0
  6
Continuous
 62
     7
370
    15
100
AcDbCircle
 10
767.7489091245
 20
649.2771088352
 30
0.0
 40
3.049999999999955
  0
CIRCLE
  5
24B
330
1F
100
AcDbEntity
  8
0
  6
Continuous
 62
     7
370
    15
100
AcDbCircle
 10
631.003497497
 20
693.8106279062
 30
0.0
 40
3.999999999999886
  0
CIRCLE
  5
24C
330
1F
100
AcDbEntity
  8
0
  6
Continuous
 62
     7
370
    15
100
AcDbCircle
 10
568.007606342
 20
693.0911158528
 30
0.0
 40
4.000000000000227
  0
LINE
  5
24D
330
1F
100
AcDbEntity
  8
0
  6
Continuous
 62
     7
370
    15
100
AcDbLine
 10
728.0055519195
 20
690.9508718795
 30
0.0
 11
731.0055519195
 21
690.9508718795
 31
0.0
  0
ARC
  5
24E
330
1F
100
AcDbEntity
  8
0
  6
Continuous
 62
     7
370
    15
100
AcDbCircle
 10
731.0055519195
 20
693.4508718795
 30
0.0
 40
2.5
100
AcDbArc
 50
270.0
 51
90.0
  0
LINE
  5
24F
330
1F
100
AcDbEntity
  8
0
  6
Continuous
 62
     7
370
    15
100
AcDbLine
 10
731.0055519195
 20
695.9508718795
 30
0.0
 11
728.0055519195
 21
695.9508718795
 31
0.0
  0
ARC
  5
250
330
1F
100
AcDbEntity
  8
0
  6
Continuous
 62
     7
370
    15
100
AcDbCircle
 10
728.0055519195
 20
693.4508718795
 30
0.0
 40
2.5
100
AcDbArc
 50
90.0
 51
270.0
  0
LINE
  5
251
330
1F
100
AcDbEntity
  8
0
  6
Continuous
 62
     7
370
    15
100
AcDbLine
 10
691.0055519195
 20
695.9508718795
 30
0.0
 11
688.0055519195
 21
695.9508718795
 31
0.0
  0
ARC
  5
252
330
1F
100
AcDbEntity
  8
0
  6
Continuous
 62
     7
370
    15
100
AcDbCircle
 10
688.0055519195
 20
693.4508718795
 30
0.0
 40
2.5
100
AcDbArc
 50
90.0
 51
270.0
  0
LINE
  5
253
330
1F
100
AcDbEntity
  8
0
  6
Continuous
 62
     7
370
    15
100
AcDbLine
 10
688.0055519195
 20
690.9508718795
 30
0.0
 11
691.0055519195
 21
690.9508718795
 31
0.0
  0
ARC
  5
254
330
1F
100
AcDbEntity
  8
0
  6
Continuous
 62
     7
370
    15
100
AcDbCircle
 10
691.0055519195
 20
693.4508718795
 30
0.0
 40
2.5
100
AcDbArc
 50
270.0
 51
90.0
  0
CIRCLE
  5
255
330
1F
100
AcDbEntity
  8
0
  6
Continuous
 62
     7
370
    15
100
AcDbCircle
 10
521.1388973652
 20
638.9508718795
 30
0.0
 40
2.0
  0
CIRCLE
  5
256
330
1F
100
AcDbEntity
  8
0
  6
Continuous
 62
     7
370
    15
100
AcDbCircle
 10
671.1388973652
 20
638.9508718795
 30
0.0
 40
2.0
  0
CIRCLE
  5
257
330
1F
100
AcDbEntity
  8
0
  6
Continuous
 62
     7
370
    15
100
AcDbCircle
 10
521.1388973652
 20
626.9508718795
 30
0.0
 40
2.0
  0
CIRCLE
  5
258
330
1F
100
AcDbEntity
  8
0
  6
Continuous
 62
     7
370
    15
100
AcDbCircle
 10
671.1388973652
 20
626.9508718795
 30
0.0
 40
2.0
  0
CIRCLE
  5
259
330
1F
100
AcDbEntity
  8
0
  6
Continuous
 62
     7
370
    15
100
AcDbCircle
 10
569.8268691297
 20
791.8346495266
 30
0.0
 40
3.0
  0
CIRCLE
  5
25A
330
1F
100
AcDbEntity
  8
0
  6
Continuous
 62
     7
370
    15
100
AcDbCircle
 10
520.5204463152
 20
759.1893310106
 30
0.0
 40
3.0
  0
CIRCLE
  5
25B
330
1F
100
AcDbEntity
  8
0
  6
Continuous
 62
     7
370
    15
100
AcDbCircle
 10
398.5045789181
 20
408.4079104124
 30
0.0
 40
2.0
  0
CIRCLE
  5
25C
330
1F
100
AcDbEntity
  8
0
  6
Continuous
 62
     7
370
    15
100
AcDbCircle
 10
383.4545789181
 20
408.4079104124
 30
0.0
 40
10.09999999999997
  0
CIRCLE
  5
25D
330
1F
100
AcDbEntity
  8
0
  6
Continuous
 62
     7
370
    15
100
AcDbCircle
 10
383.4545789181
 20
408.4079104124
 30
0.0
 40
90.99999999999994
  0
CIRCLE
  5
25E
330
1F
100
AcDbEntity
  8
0
  6
Continuous
 62
     7
370
    15
100
AcDbCircle
 10
383.4545789181
 20
436.9079104124
 30
0.0
 40
2.0
  0
CIRCLE
  5
25F
330
1F
100
AcDbEntity
  8
0
  6
Continuous
 62
     7
370
    15
100
AcDbCircle
 10
358.7728549103
 20
422.6579104124
 30
0.0
 40
2.000000000000016
  0
CIRCLE
  5
260
330
1F
100
AcDbEntity
  8
0
  6
Continuous
 62
     7
370
    15
100
AcDbCircle
 10
358.7728549103
 20
394.1579104124
 30
0.0
 40
2.000000000000016
  0
CIRCLE
  5
261
330
1F
100
AcDbEntity
  8
0
  6
Continuous
 62
     7
370
    15
100
AcDbCircle
 10
408.136302926
 20
394.1579104124
 30
0.0
 40
1.999999999999967
  0
CIRCLE
  5
262
330
1F
100
AcDbEntity
  8
0
  6
Continuous
 62
     7
370
    15
100
AcDbCircle
 10
408.136302926
 20
422.6579104124
 30
0.0
 40
1.999999999999967
  0
CIRCLE
  5
263
330
1F
100
AcDbEntity
  8
0
  6
Continuous
 62
     7
370
    15
100
AcDbCircle
 10
368.4045789181
 20
408.4079104124
 30
0.0
 40
2.0
  0
CIRCLE
  5
264
330
1F
100
AcDbEntity
  8
0
  6
Continuous
 62
     7
370
    15
100
AcDbCircle
 10
383.4545789181
 20
494.4079104124
 30
0.0
 40
2.0
  0
CIRCLE
  5
265
330
1F
100
AcDbEntity
  8
0
  6
Continuous
 62
     7
370
    15
100
AcDbCircle
 10
340.4545789181
 20
482.8860951378
 30
0.0
 40
2.000000000000045
  0
CIRCLE
  5
266
330
1F
100
AcDbEntity
  8
0
  6
Continuous
 62
     7
370
    15
100
AcDbCircle
 10
308.9763941927
 20
451.4079104124
 30
0.0
 40
2.000000000000016
  0
CIRCLE
  5
267
330
1F
100
AcDbEntity
  8
0
  6
Continuous
 62
     7
370
    15
100
AcDbCircle
 10
297.4545789181
 20
408.4079104124
 30
0.0
 40
2.0
  0
CIRCLE
  5
268
330
1F
100
AcDbEntity
  8
0
  6
Continuous
 62
     7
370
    15
100
AcDbCircle
 10
308.9763941927
 20
365.4079104124
 30
0.0
 40
2.000000000000016
  0
CIRCLE
  5
269
330
1F
100
AcDbEntity
  8
0
  6
Continuous
 62
     7
370
    15
100
AcDbCircle
 10
340.4545789181
 20
333.9297256869
 30
0.0
 40
1.999999999999967
  0
CIRCLE
  5
26A
330
1F
100
AcDbEntity
  8
0
  6
Continuous
 62
     7
370
    15
100
AcDbCircle
 10
383.4545789181
 20
322.4079104124
 30
0.0
 40
2.0
  0
CIRCLE
  5
26B
330
1F
100
AcDbEntity
  8
0
  6
Continuous
 62
     7
370
    15
100
AcDbCircle
 10
426.4545789181
 20
333.9297256869
 30
0.0
 40
1.999999999999996
  0
CIRCLE
  5
26C
330
1F
100
AcDbEntity
  8
0
  6
Continuous
 62
     7
370
    15
100
AcDbCircle
 10
457.9327636436
 20
365.4079104124
 30
0.0
 40
1.999999999999988
  0
CIRCLE
  5
26D
330
1F
100
AcDbEntity
  8
0
  6
Continuous
 62
     7
370
    15
100
AcDbCircle
 10
469.4545789181
 20
408.4079104124
 30
0.0
 40
2.0
  0
CIRCLE
  5
26E
330
1F
100
AcDbEntity
  8
0
  6
Continuous
 62
     7
370
    15
100
AcDbCircle
 10
457.9327636436
 20
451.4079104124
 30
0.0
 40
2.000000000000045
  0
CIRCLE
  5
26F
330
1F
100
AcDbEntity
  8
0
  6
Continuous
 62
     7
370
    15
100
AcDbCircle
 10
426.4545789181
 20
482.8860951378
 30
0.0
 40
2.000000000000016
  0
CIRCLE
  5
270
330
1F
100
AcDbEntity
  8
0
  6
Continuous
 62
     7
370
    15
100
AcDbCircle
 10
383.4545789181
 20
469.4079104124
 30
0.0
 40
10.0
  0
CIRCLE
  5
271
330
1F
100
AcDbEntity
  8
0
  6
Continuous
 62
     7
370
    15
100
AcDbCircle
 10
330.6270292873
 20
438.9079104124
 30
0.0
 40
10.00000000000003
  0
CIRCLE
  5
272
330
1F
100
AcDbEntity
  8
0
  6
Continuous
 62
     7
370
    15
100
AcDbCircle
 10
330.6270292873
 20
377.9079104124
 30
0.0
 40
9.999999999999991
  0
CIRCLE
  5
273
330
1F
100
AcDbEntity
  8
0
  6
Continuous
 62
     7
370
    15
100
AcDbCircle
 10
383.4545789181
 20
347.4079104124
 30
0.0
 40
10.00000000000006
  0
CIRCLE
  5
274
330
1F
100
AcDbEntity
  8
0
  6
Continuous
 62
     7
370
    15
100
AcDbCircle
 10
436.282128549
 20
377.9079104124
 30
0.0
 40
9.999999999999956
  0
CIRCLE
  5
275
330
1F
100
AcDbEntity
  8
0
  6
Continuous
 62
     7
370
    15
100
AcDbCircle
 10
436.282128549
 20
438.9079104124
 30
0.0
 40
9.999999999999963
  0
CIRCLE
  5
276
330
1F
100
AcDbEntity
  8
0
  6
Continuous
 62
     7
370
    15
100
AcDbCircle
 10
383.4545789181
 20
379.9079104124
 30
0.0
 40
2.0
  0
DIMENSION
  5
277
330
1F
100
AcDbEntity
  8
TEXT
100
AcDbDimension
  2
_D
 10
337.9324137882
 20
329.6123998684
 30
0.0
 11
470.0929677283
 21
537.3066796353
 31
0.0
 70
   163
  1
<>
 71
     1
 42
-1.0
  3
SLDDIMSTYLE1
100
AcDbDiametricDimension
 15
428.976744048
 25
487.2034209564
 35
0.0
 40
0.0
  0
CIRCLE
  5
28C
330
1F
100
AcDbEntity
  8
0
  6
Continuous
 62
     7
370
    15
100
AcDbCircle
 10
798.6470753013
 20
168.1878901064
 30
0.0
 40
7.600000000000136
  0
CIRCLE
  5
28D
330
1F
100
AcDbEntity
  8
0
  6
Continuous
 62
     7
370
    15
100
AcDbCircle
 10
851.4746249321
 20
76.6878901064
 30
0.0
 40
7.600000000000591
  0
CIRCLE
  5
28E
330
1F
100
AcDbEntity
  8
0
  6
Continuous
 62
     7
370
    15
100
AcDbCircle
 10
904.302174563
 20
168.1878901064
 30
0.0
 40
7.600000000000705
  0
CIRCLE
  5
28F
330
1F
100
AcDbEntity
  8
0
  6
Continuous
 62
     7
370
    15
100
AcDbCircle
 10
826.7929009243
 20
123.4378901064
 30
0.0
 40
2.0
  0
CIRCLE
  5
290
330
1F
100
AcDbEntity
  8
0
  6
Continuous
 62
     7
370
    15
100
AcDbCircle
 10
876.15634894
 20
123.4378901064
 30
0.0
 40
2.0
  0
CIRCLE
  5
291
330
1F
100
AcDbEntity
  8
0
  6
Continuous
 62
     7
370
    15
100
AcDbCircle
 10
851.4746249321
 20
166.1878901064
 30
0.0
 40
2.0
  0
CIRCLE
  5
292
330
1F
100
AcDbEntity
  8
0
  6
Continuous
 62
     7
370
    15
100
AcDbCircle
 10
851.4746249321
 20
198.6878901064
 30
0.0
 40
7.600000000000136
  0
ARC
  5
293
330
1F
100
AcDbEntity
  8
0
  6
Continuous
 62
     7
370
    15
100
AcDbCircle
 10
880.1496249321
 20
187.3544470134
 30
0.0
 40
11.24999999999998
100
AcDbArc
 50
150.0
 51
330.0
  0
ARC
  5
294
330
1F
100
AcDbEntity
  8
0
  6
Continuous
 62
     7
370
    15
100
AcDbCircle
 10
894.3983412936
 20
187.1631826646
 30
0.0
 40
3.00000000000012
100
AcDbArc
 50
216.7260735477
 51
83.2739264523
  0
LINE
  5
295
330
1F
100
AcDbEntity
  8
0
  6
Continuous
 62
     7
370
    15
100
AcDbLine
 10
895.3300458472
 20
191.1477073186
 30
0.0
 11
894.7497093528
 21
190.1425350249
 31
0.0
  0
ARC
  5
296
330
1F
100
AcDbEntity
  8
0
  6
Continuous
 62
     7
370
    15
100
AcDbCircle
 10
897.0620966547
 20
190.1477073186
 30
0.0
 40
2.00000000000015
100
AcDbArc
 50
49.0094270882
 51
150.0
  0
ARC
  5
297
330
1F
100
AcDbEntity
  8
0
  6
Continuous
 62
     7
370
    15
100
AcDbCircle
 10
851.4746249321
 20
137.6878901064
 30
0.0
 40
71.49999999999994
100
AcDbArc
 50
10.9905729118
 51
49.0094270882
  0
ARC
  5
298
330
1F
100
AcDbEntity
  8
0
  6
Continuous
 62
     7
370
    15
100
AcDbCircle
 10
919.6998951771
 20
150.9378901064
 30
0.0
 40
2.000000000000111
100
AcDbArc
 50
270.0
 51
10.9905729118
  0
LINE
  5
299
330
1F
100
AcDbEntity
  8
0
  6
Continuous
 62
     7
370
    15
100
AcDbLine
 10
918.5392221884
 20
148.9378901064
 30
0.0
 11
919.6998951771
 21
148.9378901064
 31
0.0
  0
ARC
  5
29A
330
1F
100
AcDbEntity
  8
0
  6
Continuous
 62
     7
370
    15
100
AcDbCircle
 10
915.7833433279
 20
150.1232726211
 30
0.0
 40
2.999999999999984
100
AcDbArc
 50
336.7260735477
 51
203.2739264523
  0
LINE
  5
29B
330
1F
100
AcDbEntity
  8
0
  6
Continuous
 62
     7
370
    15
100
AcDbLine
 10
908.8246249321
 20
148.9378901064
 30
0.0
 11
913.0274644674
 21
148.9378901064
 31
0.0
  0
ARC
  5
29C
330
1F
100
AcDbEntity
  8
0
  6
Continuous
 62
     7
370
    15
100
AcDbCircle
 10
908.8246249321
 20
137.6878901064
 30
0.0
 40
11.25000000000001
100
AcDbArc
 50
90.0
 51
270.0
  0
LINE
  5
29D
330
1F
100
AcDbEntity
  8
0
  6
Continuous
 62
     7
370
    15
100
AcDbLine
 10
913.0274644674
 20
126.4378901064
 30
0.0
 11
908.8246249321
 21
126.4378901064
 31
0.0
  0
ARC
  5
29E
330
1F
100
AcDbEntity
  8
0
  6
Continuous
 62
     7
370
    15
100
AcDbCircle
 10
915.7833433279
 20
125.2525075917
 30
0.0
 40
2.999999999999978
100
AcDbArc
 50
156.7260735477
 51
23.2739264523
  0
LINE
  5
29F
330
1F
100
AcDbEntity
  8
0
  6
Continuous
 62
     7
370
    15
100
AcDbLine
 10
919.6998951771
 20
126.4378901064
 30
0.0
 11
918.5392221884
 21
126.4378901064
 31
0.0
  0
ARC
  5
2A0
330
1F
100
AcDbEntity
  8
0
  6
Continuous
 62
     7
370
    15
100
AcDbCircle
 10
919.6998951771
 20
124.4378901064
 30
0.0
 40
2.000000000000014
100
AcDbArc
 50
349.0094270882
 51
90.0
  0
ARC
  5
2A1
330
1F
100
AcDbEntity
  8
0
  6
Continuous
 62
     7
370
    15
100
AcDbCircle
 10
851.4746249321
 20
137.6878901064
 30
0.0
 40
71.4999999999999
100
AcDbArc
 50
310.9905729118
 51
349.0094270882
  0
ARC
  5
2A2
330
1F
100
AcDbEntity
  8
0
  6
Continuous
 62
     7
370
    15
100
AcDbCircle
 10
897.0620966547
 20
85.2280728942
 30
0.0
 40
2.000000000000004
100
AcDbArc
 50
210.0
 51
310.9905729118
  0
LINE
  5
2A3
330
1F
100
AcDbEntity
  8
0
  6
Continuous
 62
     7
370
    15
100
AcDbLine
 10
894.7497093528
 20
85.2332451879
 30
0.0
 11
895.3300458472
 21
84.2280728942
 31
0.0
  0
ARC
  5
2A4
330
1F
100
AcDbEntity
  8
0
  6
Continuous
 62
     7
370
    15
100
AcDbCircle
 10
894.3983412936
 20
88.2125975482
 30
0.0
 40
3.000000000000008
100
AcDbArc
 50
276.7260735477
 51
143.2739264523
  0
LINE
  5
2A5
330
1F
100
AcDbEntity
  8
0
  6
Continuous
 62
     7
370
    15
100
AcDbLine
 10
889.8924107247
 20
93.6463331994
 30
0.0
 11
891.9938304923
 21
90.0065673937
 31
0.0
  0
ARC
  5
2A6
330
1F
100
AcDbEntity
  8
0
  6
Continuous
 62
     7
370
    15
100
AcDbCircle
 10
880.1496249321
 20
88.0213331994
 30
0.0
 40
11.25000000000004
100
AcDbArc
 50
30.0
 51
210.0
  0
LINE
  5
2A7
330
1F
100
AcDbEntity
  8
0
  6
Continuous
 62
     7
370
    15
100
AcDbLine
 10
872.5082589072
 20
78.7565673937
 30
0.0
 11
870.4068391395
 21
82.3963331994
 31
0.0
  0
ARC
  5
2A8
330
1F
100
AcDbEntity
  8
0
  6
Continuous
 62
     7
370
    15
100
AcDbCircle
 10
872.8596269665
 20
75.7772150334
 30
0.0
 40
3.000000000000008
100
AcDbArc
 50
96.7260735477
 51
323.2739264523
  0
LINE
  5
2A9
330
1F
100
AcDbEntity
  8
0
  6
Continuous
 62
     7
370
    15
100
AcDbLine
 10
875.844474262
 20
72.9780728942
 30
0.0
 11
875.2641377677
 21
73.9832451879
 31
0.0
  0
ARC
  5
2AA
330
1F
100
AcDbEntity
  8
0
  6
Continuous
 62
     7
370
    15
100
AcDbCircle
 10
874.1124234545
 20
71.9780728942
 30
0.0
 40
1.999999999999996
100
AcDbArc
 50
289.0094270882
 51
30.0
  0
ARC
  5
2AB
330
1F
100
AcDbEntity
  8
0
  6
Continuous
 62
     7
370
    15
100
AcDbCircle
 10
851.4746249321
 20
137.6878901064
 30
0.0
 40
71.50000000000004
100
AcDbArc
 50
250.9905729118
 51
289.0094270882
  0
ARC
  5
2AC
330
1F
100
AcDbEntity
  8
0
  6
Continuous
 62
     7
370
    15
100
AcDbCircle
 10
828.8368264098
 20
71.9780728942
 30
0.0
 40
2.00000000000001
100
AcDbArc
 50
150.0
 51
250.9905729118
  0
LINE
  5
2AD
330
1F
100
AcDbEntity
  8
0
  6
Continuous
 62
     7
370
    15
100
AcDbLine
 10
827.6851120965
 20
73.9832451879
 30
0.0
 11
827.1047756022
 21
72.9780728942
 31
0.0
  0
ARC
  5
2AE
330
1F
100
AcDbEntity
  8
0
  6
Continuous
 62
     7
370
    15
100
AcDbCircle
 10
830.0896228977
 20
75.7772150334
 30
0.0
 40
3.000000000000008
100
AcDbArc
 50
216.7260735477
 51
83.2739264523
  0
LINE
  5
2AF
330
1F
100
AcDbEntity
  8
0
  6
Continuous
 62
     7
370
    15
100
AcDbLine
 10
832.5424107247
 20
82.3963331994
 30
0.0
 11
830.440990957
 21
78.7565673937
 31
0.0
  0
ARC
  5
2B0
330
1F
100
AcDbEntity
  8
0
  6
Continuous
 62
     7
370
    15
100
AcDbCircle
 10
822.7996249321
 20
88.0213331994
 30
0.0
 40
11.25000000000001
100
AcDbArc
 50
330.0
 51
150.0
  0
LINE
  5
2B1
330
1F
100
AcDbEntity
  8
0
  6
Continuous
 62
     7
370
    15
100
AcDbLine
 10
810.9554193719
 20
90.0065673937
 30
0.0
 11
813.0568391395
 21
93.6463331994
 31
0.0
  0
ARC
  5
2B2
330
1F
100
AcDbEntity
  8
0
  6
Continuous
 62
     7
370
    15
100
AcDbCircle
 10
808.5509085707
 20
88.2125975482
 30
0.0
 40
3.000000000000008
100
AcDbArc
 50
36.7260735477
 51
263.2739264523
  0
ARC
  5
2B3
330
1F
100
AcDbEntity
  8
0
  6
Continuous
 62
     7
370
    15
100
AcDbCircle
 10
805.8871532095
 20
85.2280728942
 30
0.0
 40
2.000000000000025
100
AcDbArc
 50
229.0094270882
 51
330.0
  0
ARC
  5
2B4
330
1F
100
AcDbEntity
  8
0
  6
Continuous
 62
     7
370
    15
100
AcDbCircle
 10
851.4746249321
 20
137.6878901064
 30
0.0
 40
71.50000000000007
100
AcDbArc
 50
190.9905729118
 51
229.0094270882
  0
ARC
  5
2B5
330
1F
100
AcDbEntity
  8
0
  6
Continuous
 62
     7
370
    15
100
AcDbCircle
 10
783.2493546871
 20
124.4378901064
 30
0.0
 40
2.0
100
AcDbArc
 50
90.0
 51
190.9905729118
  0
LINE
  5
2B6
330
1F
100
AcDbEntity
  8
0
  6
Continuous
 62
     7
370
    15
100
AcDbLine
 10
784.4100276758
 20
126.4378901064
 30
0.0
 11
783.2493546871
 21
126.4378901064
 31
0.0
  0
ARC
  5
2B7
330
1F
100
AcDbEntity
  8
0
  6
Continuous
 62
     7
370
    15
100
AcDbCircle
 10
787.1659065363
 20
125.2525075917
 30
0.0
 40
2.999999999999978
100
AcDbArc
 50
156.7260735477
 51
23.2739264523
  0
LINE
  5
2B8
330
1F
100
AcDbEntity
  8
0
  6
Continuous
 62
     7
370
    15
100
AcDbLine
 10
794.1246249321
 20
126.4378901064
 30
0.0
 11
789.9217853968
 21
126.4378901064
 31
0.0
  0
ARC
  5
2B9
330
1F
100
AcDbEntity
  8
0
  6
Continuous
 62
     7
370
    15
100
AcDbCircle
 10
794.1246249321
 20
137.6878901064
 30
0.0
 40
11.25
100
AcDbArc
 50
270.0
 51
90.0
  0
LINE
  5
2BA
330
1F
100
AcDbEntity
  8
0
  6
Continuous
 62
     7
370
    15
100
AcDbLine
 10
789.9217853968
 20
148.9378901064
 30
0.0
 11
794.1246249321
 21
148.9378901064
 31
0.0
  0
ARC
  5
2BB
330
1F
100
AcDbEntity
  8
0
  6
Continuous
 62
     7
370
    15
100
AcDbCircle
 10
787.1659065363
 20
150.1232726211
 30
0.0
 40
3.000000000000077
100
AcDbArc
 50
336.7260735477
 51
203.2739264523
  0
LINE
  5
2BC
330
1F
100
AcDbEntity
  8
0
  6
Continuous
 62
     7
370
    15
100
AcDbLine
 10
783.2493546871
 20
148.9378901064
 30
0.0
 11
784.4100276758
 21
148.9378901064
 31
0.0
  0
ARC
  5
2BD
330
1F
100
AcDbEntity
  8
0
  6
Continuous
 62
     7
370
    15
100
AcDbCircle
 10
783.2493546871
 20
150.9378901064
 30
0.0
 40
2.0
100
AcDbArc
 50
169.0094270882
 51
270.0
  0
ARC
  5
2BE
330
1F
100
AcDbEntity
  8
0
  6
Continuous
 62
     7
370
    15
100
AcDbCircle
 10
851.4746249321
 20
137.6878901064
 30
0.0
 40
71.50000000000013
100
AcDbArc
 50
130.9905729118
 51
169.0094270882
  0
ARC
  5
2BF
330
1F
100
AcDbEntity
  8
0
  6
Continuous
 62
     7
370
    15
100
AcDbCircle
 10
805.8871532095
 20
190.1477073186
 30
0.0
 40
2.000000000000078
100
AcDbArc
 50
30.0
 51
130.9905729118
  0
LINE
  5
2C0
330
1F
100
AcDbEntity
  8
0
  6
Continuous
 62
     7
370
    15
100
AcDbLine
 10
808.1995405114
 20
190.1425350249
 30
0.0
 11
807.619204017
 21
191.1477073186
 31
0.0
  0
ARC
  5
2C1
330
1F
100
AcDbEntity
  8
0
  6
Continuous
 62
     7
370
    15
100
AcDbCircle
 10
808.5509085707
 20
187.1631826646
 30
0.0
 40
3.000000000000008
100
AcDbArc
 50
96.7260735477
 51
323.2739264523
  0
LINE
  5
2C2
330
1F
100
AcDbEntity
  8
0
  6
Continuous
 62
     7
370
    15
100
AcDbLine
 10
813.0568391395
 20
181.7294470134
 30
0.0
 11
810.9554193719
 21
185.369212819
 31
0.0
  0
ARC
  5
2C3
330
1F
100
AcDbEntity
  8
0
  6
Continuous
 62
     7
370
    15
100
AcDbCircle
 10
822.7996249321
 20
187.3544470134
 30
0.0
 40
11.25000000000004
100
AcDbArc
 50
210.0
 51
30.0
  0
LINE
  5
2C4
330
1F
100
AcDbEntity
  8
0
  6
Continuous
 62
     7
370
    15
100
AcDbLine
 10
830.440990957
 20
196.619212819
 30
0.0
 11
832.5424107247
 21
192.9794470134
 31
0.0
  0
ARC
  5
2C5
330
1F
100
AcDbEntity
  8
0
  6
Continuous
 62
     7
370
    15
100
AcDbCircle
 10
830.0896228977
 20
199.5985651794
 30
0.0
 40
3.000000000000008
100
AcDbArc
 50
276.7260735477
 51
143.2739264523
  0
LINE
  5
2C6
330
1F
100
AcDbEntity
  8
0
  6
Continuous
 62
     7
370
    15
100
AcDbLine
 10
827.1047756022
 20
202.3977073186
 30
0.0
 11
827.6851120965
 21
201.3925350249
 31
0.0
  0
ARC
  5
2C7
330
1F
100
AcDbEntity
  8
0
  6
Continuous
 62
     7
370
    15
100
AcDbCircle
 10
828.8368264098
 20
203.3977073186
 30
0.0
 40
2.000000000000066
100
AcDbArc
 50
109.0094270882
 51
210.0
  0
ARC
  5
2C8
330
1F
100
AcDbEntity
  8
0
  6
Continuous
 62
     7
370
    15
100
AcDbCircle
 10
851.4746249321
 20
137.6878901064
 30
0.0
 40
71.50000000000004
100
AcDbArc
 50
70.9905729118
 51
109.0094270882
  0
ARC
  5
2C9
330
1F
100
AcDbEntity
  8
0
  6
Continuous
 62
     7
370
    15
100
AcDbCircle
 10
874.1124234545
 20
203.3977073186
 30
0.0
 40
1.999999999999973
100
AcDbArc
 50
330.0
 51
70.9905729118
  0
ARC
  5
2CA
330
1F
100
AcDbEntity
  8
0
  6
Continuous
 62
     7
370
    15
100
AcDbCircle
 10
872.8596269665
 20
199.5985651794
 30
0.0
 40
3.000000000000012
100
AcDbArc
 50
36.7260735477
 51
263.2739264523
  0
LINE
  5
2CB
330
1F
100
AcDbEntity
  8
0
  6
Continuous
 62
     7
370
    15
100
AcDbLine
 10
870.4068391395
 20
192.9794470134
 30
0.0
 11
872.5082589072
 21
196.619212819
 31
0.0
  0
CIRCLE
  5
2CC
330
1F
100
AcDbEntity
  8
0
  6
Continuous
 62
     7
370
    15
100
AcDbCircle
 10
851.4746249321
 20
137.6878901064
 30
0.0
 40
10.10000000000014
  0
CIRCLE
  5
2CD
330
1F
100
AcDbEntity
  8
0
  6
Continuous
 62
     7
370
    15
100
AcDbCircle
 10
876.15634894
 20
151.9378901064
 30
0.0
 40
2.0
  0
CIRCLE
  5
2CE
330
1F
100
AcDbEntity
  8
0
  6
Continuous
 62
     7
370
    15
100
AcDbCircle
 10
851.4746249321
 20
109.1878901064
 30
0.0
 40
2.0
  0
CIRCLE
  5
2CF
330
1F
100
AcDbEntity
  8
0
  6
Continuous
 62
     7
370
    15
100
AcDbCircle
 10
826.7929009243
 20
151.9378901064
 30
0.0
 40
2.0
  0
CIRCLE
  5
2D0
330
1F
100
AcDbEntity
  8
0
  6
Continuous
 62
     7
370
    15
100
AcDbCircle
 10
904.302174563
 20
107.1878901064
 30
0.0
 40
7.600000000000591
  0
CIRCLE
  5
2D1
330
1F
100
AcDbEntity
  8
0
  6
Continuous
 62
     7
370
    15
100
AcDbCircle
 10
798.6470753013
 20
107.1878901064
 30
0.0
 40
7.60000000000025
  0
LINE
  5
2D2
330
1F
100
AcDbEntity
  8
0
  6
Continuous
 62
     7
370
    15
100
AcDbLine
 10
807.619204017
 20
84.2280728942
 30
0.0
 11
808.1995405114
 21
85.2332451879
 31
0.0
  0
LINE
  5
2D3
330
1F
100
AcDbEntity
  8
0
  6
Continuous
 62
     7
370
    15
100
AcDbLine
 10
891.9938304923
 20
185.369212819
 30
0.0
 11
889.8924107247
 21
181.7294470134
 31
0.0
  0
LINE
  5
2D4
330
1F
100
AcDbEntity
  8
0
  6
Continuous
 62
     7
370
    15
100
AcDbLine
 10
875.2641377677
 20
201.3925350249
 30
0.0
 11
875.844474262
 21
202.3977073186
 31
0.0
  0
CIRCLE
  5
2D5
330
1F
100
AcDbEntity
  8
0
  6
Continuous
 62
     7
370
    15
100
AcDbCircle
 10
866.5246249321
 20
137.6878901064
 30
0.0
 40
2.0
  0
CIRCLE
  5
2D6
330
1F
100
AcDbEntity
  8
0
  6
Continuous
 62
     7
370
    15
100
AcDbCircle
 10
836.4246249321
 20
137.6878901064
 30
0.0
 40
2.0
  0
ENDSEC
  0
SECTION
  2
OBJECTS
  0
DICTIONARY
  5
C
330
0
100
AcDbDictionary
281
     1
  3
ACAD_GROUP
350
D
  3
ACAD_LAYOUT
350
1A
  3
ACAD_MLINESTYLE
350
17
  3
ACAD_PLOTSETTINGS
350
19
  3
ACAD_PLOTSTYLENAME
350
E
  0
DICTIONARY
  5
D
102
{ACAD_REACTORS
330
C
102
}
330
C
100
AcDbDictionary
281
     1
  0
DICTIONARY
  5
1A
102
{ACAD_REACTORS
330
C
102
}
330
C
100
AcDbDictionary
281
     1
  3
Layout1
350
1E
  3
Layout2
350
26
  3
Model
350
22
  0
DICTIONARY
  5
17
102
{ACAD_REACTORS
330
C
102
}
330
C
100
AcDbDictionary
281
     1
  3
Standard
350
18
  0
DICTIONARY
  5
19
102
{ACAD_REACTORS
330
C
102
}
330
C
100
AcDbDictionary
281
     1
  0
ACDBDICTIONARYWDFLT
  5
E
102
{ACAD_REACTORS
330
C
102
}
330
C
100
AcDbDictionary
281
     1
  3
Normal
350
F
100
AcDbDictionaryWithDefault
340
F
  0
LAYOUT
  5
1E
102
{ACAD_REACTORS
330
1A
102
}
330
1A
100
AcDbPlotSettings
  1

  2
none_device
  4

  6

 40
0.0
 41
0.0
 42
0.0
 43
0.0
 44
0.0
 45
0.0
 46
0.0
 47
0.0
 48
0.0
 49
0.0
140
0.0
141
0.0
142
1.0
143
1.0
 70
   688
 72
     0
 73
     0
 74
     5
  7

 75
    16
147
1.0
148
0.0
149
0.0
100
AcDbLayout
  1
Layout1
 70
     1
 71
     1
 10
0.0
 20
0.0
 11
420.0
 21
297.0
 12
0.0
 22
0.0
 32
0.0
 14
1.0000000000E+20
 24
1.0000000000E+20
 34
1.0000000000E+20
 15
-1.0000000000E+20
 25
-1.0000000000E+20
 35
-1.0000000000E+20
146
0.0
 13
0.0
 23
0.0
 33
0.0
 16
1.0
 26
0.0
 36
0.0
 17
0.0
 27
1.0
 37
0.0
 76
     0
330
1B
  0
LAYOUT
  5
26
102
{ACAD_REACTORS
330
1A
102
}
330
1A
100
AcDbPlotSettings
  1

  2
none_device
  4

  6

 40
0.0
 41
0.0
 42
0.0
 43
0.0
 44
0.0
 45
0.0
 46
0.0
 47
0.0
 48
0.0
 49
0.0
140
0.0
141
0.0
142
1.0
143
1.0
 70
   688
 72
     0
 73
     0
 74
     5
  7

 75
    16
147
1.0
148
0.0
149
0.0
100
AcDbLayout
  1
Layout2
 70
     1
 71
     2
 10
0.0
 20
0.0
 11
0.0
 21
0.0
 12
0.0
 22
0.0
 32
0.0
 14
0.0
 24
0.0
 34
0.0
 15
0.0
 25
0.0
 35
0.0
146
0.0
 13
0.0
 23
0.0
 33
0.0
 16
1.0
 26
0.0
 36
0.0
 17
0.0
 27
1.0
 37
0.0
 76
     0
330
23
  0
LAYOUT
  5
22
102
{ACAD_REACTORS
330
1A
102
}
330
1A
100
AcDbPlotSettings
  1

  2
none_device
  4

  6

 40
0.0
 41
0.0
 42
0.0
 43
0.0
 44
0.0
 45
0.0
 46
0.0
 47
0.0
 48
0.0
 49
0.0
140
0.0
141
0.0
142
1.0
143
1.0
 70
  1712
 72
     0
 73
     0
 74
     0
  7

 75
     0
147
1.0
148
0.0
149
0.0
100
AcDbLayout
  1
Model
 70
     1
 71
     0
 10
0.0
 20
0.0
 11
1189.0
 21
841.0
 12
0.0
 22
0.0
 32
0.0
 14
0.0
 24
0.0
 34
0.0
 15
1189.0
 25
841.0
 35
0.0
146
0.0
 13
0.0
 23
0.0
 33
0.0
 16
1.0
 26
0.0
 36
0.0
 17
0.0
 27
1.0
 37
0.0
 76
     0
330
1F
331
29
  0
MLINESTYLE
  5
18
102
{ACAD_REACTORS
330
17
102
}
330
17
100
AcDbMlineStyle
  2
Standard
 70
     0
  3

 62
   256
 51
90.0
 52
90.0
 71
     2
 49
0.5
 62
   256
  6
BYLAYER
 49
-0.5
 62
   256
  6
BYLAYER
  0
ACDBPLACEHOLDER
  5
F
102
{ACAD_REACTORS
330
E
102
}
330
E
  0
ENDSEC
  0
EOF
